[bittorrent] Widespread Panic Hardrock Hotel Riviera Maya, Mexico 2/4/2016 (Schoeps CCM4V'S)

Automated Mailer noreply-bt.e at etree.org
Fri Feb 5 10:43:51 UTC 2016


Band:           Widespread Panic
Torrent Name:   Widespread Panic Hardrock Hotel Riviera Maya, Mexico 2/4/2016 (Schoeps CCM4V'S)
Uploaded by:    zmanatl
DB Link:        
Details:        http://bt.etree.org/details.php?id=584829

Contact the seeder at http://db.etree.org/zmanatl

If the link to this show does not work, it was probably removed for
being non-trade-friendly.

Description / text file:
-------------------------
Widespread Panic
Panic En La Playa Cinco
Hard Rock Hotel
Riviera Maya, Mexico
2/4/2016 

Source: Schoeps CCM4V's>Lunatec V2>Benchmark AD2K>
Sound Devices 722 (24/44)
DFC/KFC/ZFC/AARP 6' High
DSP: Sound Devices 722>Sound Forge 10.0>CD Wave>flac(16)
ID3 Tagged In Foobar 2000
Recorded By: Z-Man
Seeded By: Z-Man

This Recording Is Dedicated To My Friends Ed Fairchild And Matt Kinder. RIP Brothers.

Disc I 1st Set

01 Disco 
02 Tall Boy
03 Bear's Gone Fishin' >
04 Walk On
05 Old Neighborhood >
06 Bust It Big >
07 Little Kin >
08 Low Spark Of High-Heeled Boys >
09 Red Hot Mama

Disc II 2nd Set

01 Impossible >
02 B Of D >
03 Saint Ex 
04 The Poorhouse of Positive Thinking >
05 Blight >
06 That Thang >
07 Ribs And Whiskey

Disc III 2nd Set Con't

01 Greta >
02 Who Do You Belong To?
03 Protein Drink >
04 Sewing Machine
Encore:
05 Porch Song >
06 Blackout Blues

wsp2016-02-04d01t01.flac:3748dde90f8ff2bf6214159e85451d82
wsp2016-02-04d01t02.flac:7b1b0a30893c84dbc5cdf9169f9b0ad0
wsp2016-02-04d01t03.flac:92f165d38c10cf8546e185f698c0739d
wsp2016-02-04d01t04.flac:41207d3c18bf8cad4ea2a3ffcd0d9f73
wsp2016-02-04d01t05.flac:0f035a0767897842fe39b1fc24dbf98c
wsp2016-02-04d01t06.flac:578c9f6c6fbbc13559ec463b2b304ef0
wsp2016-02-04d01t07.flac:fa540b5b3e6c8902c63d9de426daa158
wsp2016-02-04d01t08.flac:ca8f21a429cff768a61264a9e713916b
wsp2016-02-04d01t09.flac:ee51ad01e324071d88ac98e6178f3528
wsp2016-02-04d02t01.flac:aef2d5842316eaa565455d0b8d1a44f7
wsp2016-02-04d02t02.flac:da5c168c3279074adf7a355635c0afcd
wsp2016-02-04d02t03.flac:2c5f2801dba04564ae5cf0ee213b37db
wsp2016-02-04d02t04.flac:cfbd301a97bf165dd19d71fe8a57b004
wsp2016-02-04d02t05.flac:e779bac02e4ab64a1613f8e6ceecf36b
wsp2016-02-04d02t06.flac:7a0338f06b12372647b83e2dd18d8f6f
wsp2016-02-04d02t07.flac:d02a506e137c9b375de0cb16ecae932f
wsp2016-02-04d03t01.flac:a8c36f0488284fbe23190930d3d991c0
wsp2016-02-04d03t02.flac:e1b4116914ee19170082f49f9ed39427
wsp2016-02-04d03t03.flac:334c163ee172f18667e9749b98b7e716
wsp2016-02-04d03t04.flac:44169678ae69c47932fcda7e4d9249cc
wsp2016-02-04d03t05.flac:e0753b27e658cf137311094b0254ee38
wsp2016-02-04d03t06.flac:236dca4d45d0658e2a3d3457feace073

  length     expanded size    cdr  WAVE problems  fmt   ratio  filename
     5:45.52       60980348 B   ---   --   ---xx   flac  0.3959  wsp2016-02-04d01t01.flac
     4:26.03       46929500 B   ---   --   ---xx   flac  0.4334  wsp2016-02-04d01t02.flac
    10:15.48      108598940 B   ---   --   ---xx   flac  0.4186  wsp2016-02-04d01t03.flac
     8:03.42       85300028 B   ---   --   ---xx   flac  0.4315  wsp2016-02-04d01t04.flac
     5:24.20       57200684 B   ---   --   ---xx   flac  0.4515  wsp2016-02-04d01t05.flac
     9:35.03      101437100 B   ---   --   ---xx   flac  0.4550  wsp2016-02-04d01t06.flac
     5:55.36       62706716 B   ---   --   ---xx   flac  0.4337  wsp2016-02-04d01t07.flac
    11:36.69      122936732 B   ---   --   ---xx   flac  0.3879  wsp2016-02-04d01t08.flac
     6:25.54       68041052 B   ---   --   ---xx   flac  0.4478  wsp2016-02-04d01t09.flac
     5:45.46       60966236 B   ---   --   ---xx   flac  0.4218  wsp2016-02-04d02t01.flac
     3:47.56       40174556 B   ---   --   ---xx   flac  0.4162  wsp2016-02-04d02t02.flac
     8:12.07       86805308 B   ---   --   ---xx   flac  0.4036  wsp2016-02-04d02t03.flac
     6:25.20       67961084 B   ---   --   ---xx   flac  0.4384  wsp2016-02-04d02t04.flac
    10:53.27      115252748 B   ---   --   ---xx   flac  0.4158  wsp2016-02-04d02t05.flac
     5:44.60       60822764 B   ---   --   ---xx   flac  0.3842  wsp2016-02-04d02t06.flac
     9:13.59       97688012 B   ---   --   ---xx   flac  0.4293  wsp2016-02-04d02t07.flac
     9:05.38       96227420 B   ---   --   ---xx   flac  0.4247  wsp2016-02-04d03t01.flac
     5:52.66       62248076 B   ---   --   ---xx   flac  0.4249  wsp2016-02-04d03t02.flac
     5:34.08       58936460 B   ---   --   ---xx   flac  0.4343  wsp2016-02-04d03t03.flac
     4:41.61       49711916 B   ---   --   ---xx   flac  0.4823  wsp2016-02-04d03t04.flac
     5:01.68       53256380 B   ---   --   ---xx   flac  0.4235  wsp2016-02-04d03t05.flac
     7:21.13       77823020 B   ---   --   ---xx   flac  0.4326  wsp2016-02-04d03t06.flac
   155:08.31     1642005080 B                            0.4249  (22 files)








 




More information about the bittorrent mailing list