[bittorrent] The New Mastersounds Panic En La Playa Cinco Hard Rock Hotel Riviera Maya, Mexico 2/2/2016 (Schoeps CCM4V'S FOB)

Automated Mailer noreply-bt.e at etree.org
Wed Feb 3 18:24:32 UTC 2016


Band:           Other
Torrent Name:   The New Mastersounds Panic En La Playa Cinco Hard Rock Hotel Riviera Maya, Mexico 2/2/2016 (Schoeps CCM4V'S FOB)
Uploaded by:    zmanatl
DB Link:        
Details:        http://bt.etree.org/details.php?id=584797

Contact the seeder at http://db.etree.org/zmanatl

If the link to this show does not work, it was probably removed for
being non-trade-friendly.

Description / text file:
-------------------------
The New Mastersounds With Eric Krasno
Late Night
Panic En La Playa Cinco
Hard Rock Hotel
Riviera Maya, Mexico
2/3/2016 

Source: Schoeps CCM4V's>Lunatec V2>Benchmark AD2K>
Sound Devices 722 (24/44)
FOB/DLFC/KFC/ZFC/AARP 18' From Stage, 7' High
DSP: Sound Devices 722>Sound Forge 10.0>CD Wave>flac(16)
ID3 Tagged In Foobar 2000
Recorded By: Z-Man
Seeded By: Z-Man

This Recording Is Dedicated To My Friends Ed Fairchild And Matt Kinder. RIP Brothers.

Disc I 

01 Introduction By Annabel Lukens/Greeting
02 Fire Eater
03 102%
04 Thirty Three
05 *Gimme Shelter
06 *Let The Music Take Your Mind
07 *Upshot
08 *Pick Up The Pieces

Disc II 

01 *Cantaloupe
02 Windjammer
03 ?
04 The In Crowd
05 This Ain't Work >
06 Jan Jan  

* With Jimmy Herring On Guitar

Simon Allen - Drums
Peter Shand - Bass
Joe Tatton - Keyboards
Eric Krasno - Guitar (Filling In For Eddie Roberts)
Daniel - Saxophone

new2016-02-02d01t01.flac:fba281f59300e17b525c31f5a2f179a4
new2016-02-02d01t02.flac:60f5d015bd4e4d187af3197b82f0647a
new2016-02-02d01t03.flac:fb8c92f775f5bf2910323fe87f665429
new2016-02-02d01t04.flac:3943ec41ee65a4494efa517a147ee74b
new2016-02-02d01t05.flac:fb3a6f51a4a277d7096a905107c59198
new2016-02-02d01t06.flac:77a0c5d888fabbf3330154f7b39adc44
new2016-02-02d01t07.flac:d5eaea330ae63724436459f78c16ef9a
new2016-02-02d01t08.flac:cb31c357f303e5756bcedc1dc445f47c
new2016-02-02d02t01.flac:a527dfcc13db7fc4c789253e7f11dcec
new2016-02-02d02t02.flac:b0a4ca66ab0596c2d7fb1dbec0f5ba8d
new2016-02-02d02t03.flac:4085c1ce70947926b1cd314b5efe7e04
new2016-02-02d02t04.flac:d3d52740f61568dc003265dd64589fde
new2016-02-02d02t05.flac:41f66b471f6e15c737273d7d803e8d67
new2016-02-02d02t06.flac:75f923ae181da08494e8777dca974ee5

length     expanded size    cdr  WAVE problems  fmt   ratio  filename
     2:30.00       26460044 B   ---   --   ---xx   flac  0.3371  new2016-02-02d01t01.flac
     5:45.03       60865100 B   ---   --   ---xx   flac  0.5432  new2016-02-02d01t02.flac
     3:54.04       41287052 B   ---   --   ---xx   flac  0.5191  new2016-02-02d01t03.flac
     7:51.36       83169116 B   ---   --   ---xx   flac  0.5360  new2016-02-02d01t04.flac
     9:27.30      100089404 B   ---   --   ---xx   flac  0.5212  new2016-02-02d01t05.flac
    15:35.42      165032828 B   ---   --   ---xx   flac  0.5214  new2016-02-02d01t06.flac
     9:26.13       99873020 B   ---   --   ---xx   flac  0.4735  new2016-02-02d01t07.flac
     5:25.69       57492332 B   ---   --   ---xx   flac  0.5815  new2016-02-02d01t08.flac
     9:24.68       99649580 B   ---   --   ---xx   flac  0.4750  new2016-02-02d02t01.flac
    12:19.55      130489004 B   ---   --   ---xx   flac  0.5079  new2016-02-02d02t02.flac
     8:22.31       88625756 B   ---   --   ---xx   flac  0.5291  new2016-02-02d02t03.flac
    11:12.12      118569068 B   ---   --   ---xx   flac  0.4808  new2016-02-02d02t04.flac
     7:00.27       74151548 B   ---   --   ---xx   flac  0.4764  new2016-02-02d02t05.flac
    10:13.53      108257900 B   ---   --   ---xx   flac  0.5031  new2016-02-02d02t06.flac
   118:28.68     1254011752 B                            0.5058  (14 files)













More information about the bittorrent mailing list