[bittorrent] Widespread PanicPanic En La Playa Cinco Hardrock Hotel Riviera Maya, Mexico 2/2/2016 (Schoeps CCM4V'S FOB)

Automated Mailer noreply-bt.e at etree.org
Wed Feb 3 09:21:07 UTC 2016


Band:           Other
Torrent Name:   Widespread PanicPanic En La Playa Cinco Hardrock Hotel Riviera Maya, Mexico 2/2/2016 (Schoeps CCM4V'S FOB)
Uploaded by:    zmanatl
DB Link:        
Details:        http://bt.etree.org/details.php?id=584792

Contact the seeder at http://db.etree.org/zmanatl

If the link to this show does not work, it was probably removed for
being non-trade-friendly.

Description / text file:
-------------------------
Widespread Panic
Panic En La Playa Cinco
Hard Rock Hotel
Riviera Maya, Mexico
2/2/2016 

Source: Schoeps CCM4V's>Lunatec V2>Benchmark AD2K>
Sound Devices 722 (24/44)
FOB/DLFC/KFC/ZFC/AARP 35' From Stage, 6' High
DSP: Sound Devices 722>Sound Forge 10.0>CD Wave>flac(16)
ID3 Tagged In Foobar 2000
Recorded By: Z-Man
Seeded By: Z-Man

This Recording Is Dedicated To My Friends Ed Fairchild And Matt Kinder. RIP Brother.

Disc I 1st Set

01 Toast By Annabel Lukins
02 Climb To Safety >
03 Ride Me High >
04 Shut Up And Drive 
05 Sleepin' Man >
06 Rebirtha >
07 You Should Be Glad
08 Happy >
09 Up All Night >
10 Solid Rock >
11 Up All Night

Disc II 2nd Set 

01 From The Cradle
02 Cotton Was King 
03 PApa Johnny Road
04 Drivin' Song >
05 Papa's Home >
06 Surprise Valley >
07 Drum Solo >
08 Surprise Valley >
09 Jam >
10 Drivin' Song >
11 Tail Dragger 

Disc III 2nd Set Con't 

01 Streetdogs For Breakfast 
02 Fishwater >
03 Drum Solo >
04 Fishwater
Encore:
05 JB Banter
06 All Time Low >
07 Flicker 

wsp2016-02-02d01t01.flac:719d23d793f0d527de9b68e8bf0c0fad
wsp2016-02-02d01t02.flac:e7023922c5332957b3ee72de0c9a7578
wsp2016-02-02d01t03.flac:24fef4ba7679e057fbebafc8b71c966a
wsp2016-02-02d01t04.flac:24b23dbd3f3ddfa5ec346a8304af5a9c
wsp2016-02-02d01t05.flac:3aecb9f251c5f9a2133571002820bd3b
wsp2016-02-02d01t06.flac:2b11ba4364feddd6cfb4675a8c065645
wsp2016-02-02d01t07.flac:a9d54f08c27605edcd1e02e05fbda031
wsp2016-02-02d01t08.flac:0ba72f8b6117737028aeb1657efb19b2
wsp2016-02-02d01t09.flac:7d32792bc308fcecadee3b4f43472fa5
wsp2016-02-02d01t10.flac:1c588430f72167fd7d9a7f4155125590
wsp2016-02-02d01t11.flac:2d0bd01d9f239ae7ab9b2ad71d2465c6
wsp2016-02-02d02t01.flac:4d1cf066177bb077070659fd724617b1
wsp2016-02-02d02t02.flac:20f6accc3206a80ed43cfd1530b48bd4
wsp2016-02-02d02t03.flac:cd5f2babe48ed99f4f8e4cb44261ebcf
wsp2016-02-02d02t04.flac:ec01e1b95af1c6e49d737e9086a9a5a0
wsp2016-02-02d02t05.flac:1f0da69e9c2f5c70ab3d6f28d878c6a5
wsp2016-02-02d02t06.flac:1c98234fb3df8dfe230ddf351151ebce
wsp2016-02-02d02t07.flac:769f52ebe93904c474d670f85c629b95
wsp2016-02-02d02t08.flac:c1ca7523909790eb5c9d7a6617dba0f7
wsp2016-02-02d02t09.flac:2e5b412f0670f56974f52b98e1155e91
wsp2016-02-02d02t10.flac:bb48c79b4131c2dfd8bec26e9cdd90b2
wsp2016-02-02d02t11.flac:a9f65c796ee1e47dd98aaa7c4a0ccbcb
wsp2016-02-02d03t01.flac:02fd2fca6b68c0f19bd05c10133aa340
wsp2016-02-02d03t02.flac:70ae9c61e3eb32406f7a964bcf1bf0e5
wsp2016-02-02d03t03.flac:e064be556867c88dfbace5bfe7069c3d
wsp2016-02-02d03t04.flac:049a51d1c52f252b11576be2db482f14
wsp2016-02-02d03t05.flac:e2e3d38da8765940cf87f475e023adac
wsp2016-02-02d03t06.flac:b5255c5c3fe51d614ddf22589e9c880f
wsp2016-02-02d03t07.flac:37fb5a6ec9a70e407edcf5622b463c4d

 length     expanded size    cdr  WAVE problems  fmt   ratio  filename
     1:39.37       17550668 B   ---   --   ---xx   flac  0.3744  wsp2016-02-02d01t01.flac
     8:15.56       87449756 B   ---   --   ---xx   flac  0.4574  wsp2016-02-02d01t02.flac
    11:32.42      122167628 B   ---   --   ---xx   flac  0.4663  wsp2016-02-02d01t03.flac
     7:53.28       83503100 B   ---   --   ---xx   flac  0.4545  wsp2016-02-02d01t04.flac
     5:55.04       62631452 B   ---   --   ---xx   flac  0.4894  wsp2016-02-02d01t05.flac
     9:06.01       96316796 B   ---   --   ---xx   flac  0.4659  wsp2016-02-02d01t06.flac
    11:07.07      117675308 B   ---   --   ---xx   flac  0.4702  wsp2016-02-02d01t07.flac
     7:46.11       82228316 B   ---   --   ---xx   flac  0.4300  wsp2016-02-02d01t08.flac
     4:49.21       51029036 B   ---   --   ---xx   flac  0.4324  wsp2016-02-02d01t09.flac
     6:44.45       71371484 B   ---   --   ---xx   flac  0.4755  wsp2016-02-02d01t10.flac
     2:58.16       31436876 B   ---   --   ---xx   flac  0.3979  wsp2016-02-02d01t11.flac
     5:01.39       53188172 B   ---   --   ---xx   flac  0.4532  wsp2016-02-02d02t01.flac
     7:04.02       74798348 B   ---   --   ---xx   flac  0.4473  wsp2016-02-02d02t02.flac
     6:18.46       66787436 B   ---   --   ---xx   flac  0.4598  wsp2016-02-02d02t03.flac
     4:02.31       42761756 B   ---   --   ---xx   flac  0.4188  wsp2016-02-02d02t04.flac
    11:15.39      119161772 B   ---   --   ---xx   flac  0.4463  wsp2016-02-02d02t05.flac
     4:29.05       47463404 B   ---   --   ---xx   flac  0.4778  wsp2016-02-02d02t06.flac
     5:31.73       58560140 B   ---   --   ---xx   flac  0.4062  wsp2016-02-02d02t07.flac
     3:31.59       37359212 B   ---   --   ---xx   flac  0.4301  wsp2016-02-02d02t08.flac
     3:53.24       41157692 B   ---   --   ---xx   flac  0.3729  wsp2016-02-02d02t09.flac
     2:38.41       27967676 B   ---   --   ---xx   flac  0.4046  wsp2016-02-02d02t10.flac
     4:45.35       50356364 B   ---   --   ---xx   flac  0.4609  wsp2016-02-02d02t11.flac
     4:32.73       48152540 B   ---   --   ---xx   flac  0.4465  wsp2016-02-02d03t01.flac
     5:29.08       58054460 B   ---   --   ---xx   flac  0.4809  wsp2016-02-02d03t02.flac
     1:00.12       10612268 B   ---   --   ---xx   flac  0.4670  wsp2016-02-02d03t03.flac
     3:22.38       35722220 B   ---   --   ---xx   flac  0.4802  wsp2016-02-02d03t04.flac
     0:33.09        5842412 B   ---   --   ---xx   flac  0.3202  wsp2016-02-02d03t05.flac
     5:11.67       55018028 B   ---   --   ---xx   flac  0.4699  wsp2016-02-02d03t06.flac
     5:53.03       62276300 B   ---   --   ---xx   flac  0.4717  wsp2016-02-02d03t07.flac
   162:22.47     1718600620 B                            0.4519  (29 files)



























More information about the bittorrent mailing list