[bittorrent] moe. 2016-01-29 The Tabernacle, Atlanta, Ga. - akg 483

Automated Mailer noreply-bt.e at etree.org
Tue Feb 2 06:42:54 UTC 2016


Band:           moe.
Torrent Name:   moe. 2016-01-29 The Tabernacle, Atlanta, Ga. - akg 483
Uploaded by:    barren
DB Link:        
Details:        http://bt.etree.org/details.php?id=584777

Contact the seeder at http://db.etree.org/barren

If the link to this show does not work, it was probably removed for
being non-trade-friendly.

Description / text file:
-------------------------
moe.
2016-01-28
The Tabernacle, Atlanta, Ga.

Source: AKG c480b/ck63 (pos dfc 1st balcony rail )>V3 (24/96)>sd722
Transfer: firewire>wavelab 6.10 [Crystal Resampler (downsample) iZotope Ozone 4 (dither)]>CDWav (splits)>FLACFrontend level 6>foobar2000 (tagging)
taped and transferred by John Barren
A Team Dirty South Recording
Home Team

Set 1
01. tuning
02. Stranger Than Fiction
03. All Roads Lead to Home
04. Downward Facing Dog
05. Chromatic Nightmare
06. Can't You Hear Me Knockin'*
07. Puebla*>
08. Recreational Chemistry*

Set 2
01. tuning
02. Bullet>
03. Kyle's Song>
04. Kids>
05. George
06. Haze>
07. Rebubula
08. encore break
09. Alnouncements
10. Letter Home 
11. The Ghost of Ralph's Mom

* With Ivan Neville

Shntool 3.0.4
    length     expanded size    cdr  WAVE problems  fmt   ratio  filename
     1:14.35       13135964 B   ---   --   ---xx   flac  0.4208  moe.2016-01-29s1t01.flac
     5:23.59       57116012 B   ---   --   ---xx   flac  0.5280  moe.2016-01-29s1t02.flac
     4:03.04       42874652 B   ---   --   ---xx   flac  0.5564  moe.2016-01-29s1t03.flac
    11:59.69      126993932 B   ---   --   ---xx   flac  0.5748  moe.2016-01-29s1t04.flac
     7:23.42       78244028 B   ---   --   ---xx   flac  0.5085  moe.2016-01-29s1t05.flac
    11:47.52      124837148 B   ---   --   ---xx   flac  0.5386  moe.2016-01-29s1t06.flac
    12:51.70      136169084 B   ---   --   ---xx   flac  0.5391  moe.2016-01-29s1t07.flac
    20:32.02      217329548 B   ---   --   ---xx   flac  0.5689  moe.2016-01-29s1t08.flac
     0:57.18       10097180 B   ---   --   ---xx   flac  0.4186  moe.2016-01-29s2t01.flac
    10:42.07      113265308 B   ---   --   ---xx   flac  0.5390  moe.2016-01-29s2t02.flac
    13:45.50      145647644 B   ---   --   ---xx   flac  0.5425  moe.2016-01-29s2t03.flac
    17:21.66      183787676 B   ---   --   ---xx   flac  0.5477  moe.2016-01-29s2t04.flac
    18:21.03      194223500 B   ---   --   ---xx   flac  0.5639  moe.2016-01-29s2t05.flac
    13:28.74      142705292 B   ---   --   ---xx   flac  0.5073  moe.2016-01-29s2t06.flac
    18:59.46      201027836 B   ---   --   ---xx   flac  0.5390  moe.2016-01-29s2t07.flac
     3:19.04       35113052 B   ---   --   ---xx   flac  0.4444  moe.2016-01-29s2t08.flac
     1:17.42       13681628 B   ---   --   ---xx   flac  0.4357  moe.2016-01-29s2t09.flac
     4:39.23       49269740 B   ---   --   ---xx   flac  0.4996  moe.2016-01-29s2t10.flac
     5:08.00       54331244 B   ---   --   ---xx   flac  0.5713  moe.2016-01-29s2t11.flac
   183:16.66     1939850468 B                            0.5408  (19 files)




More information about the bittorrent mailing list