[bittorrent] gd1985-11-21.aud.bernstein.135123.flac2448

Automated Mailer noreply-bt.e at etree.org
Tue Feb 2 01:17:19 UTC 2016


Band:           Grateful Dead
Torrent Name:   gd1985-11-21.aud.bernstein.135123.flac2448
Uploaded by:    nfagdtrfb
DB Link:        http://db.etree.org/shn/135123
Details:        http://bt.etree.org/details.php?id=584768

Contact the seeder at http://db.etree.org/nfagdtrfb

If the link to this show does not work, it was probably removed for
being non-trade-friendly.

Description / text file:
-------------------------
GRATEFUL DEAD
Henry J. Kaiser Convention Center
Oakland CA
11-21-1985

24bit/48kHz file-set

s1t01 crowd
s1t02 Big Boy Pete
s1t03 Dire Wolf
s1t04 Little Red Rooster
s1t05 Brown Eyed Women
s1t06 Me & My Uncle >
s1t07 Mexicali Blues
s1t08 Ramble on Rose
s1t09 /Looks Like Rain >
s1t10 Might as Well

s2t01 crowd
s2t02 Shakedown Street >
s2t03 Crazy Fingers >
s2t04 Playin' in the Band >
s2t05 She Belongs to Me >
s2t06 Drums >
s2t07 Space > The Other One >
s2t08 Wharf Rat >
s2t09 Playin' in the Band Reprise >
s2t10 Gimme Some Lovin' >
s2t11 Midnight Hour
s2t12 Encore: Walkin' the Dog

AUD: Unknown mics > Sony TC-D5 > Maxell MX-Metal 90's. Recording by Jon Bernstein.

Transfer: MAC > Nakamichi CR-5A > Edirol FA-66 > Wavelab 2448 > CD-Wave (24bit output) > TLH > FLAC 2448 tagged. Transferred by Andrew F. 01/2016

Note: LLRain cuts in, about ten seconds missing. Patches from ID-98519; crowd after Dire Wolf 4:09 > Rooster 0:03, and Drums 4:35 > 6:15.

    length     expanded size    cdr  WAVE problems  fmt   ratio  filename
     1:32.507      26641964 B   cxx   --   ---xx   flac  0.6920  gd1985-11-21s1t01.flac
     3:15.347      56259884 B   cxx   --   ---xx   flac  0.7519  gd1985-11-21s1t02.flac
     4:30.267      77836844 B   cxx   --   ---xx   flac  0.7352  gd1985-11-21s1t03.flac
     6:54.347     119331884 B   cxx   --   ---xx   flac  0.7483  gd1985-11-21s1t04.flac
     6:47.867     117465644 B   cxx   --   ---xx   flac  0.7389  gd1985-11-21s1t05.flac
     3:00.680      52035884 B   cxx   --   ---xx   flac  0.7540  gd1985-11-21s1t06.flac
     4:35.213      79261484 B   cxx   --   ---xx   flac  0.7551  gd1985-11-21s1t07.flac
     6:39.160     114958124 B   cxx   --   ---xx   flac  0.7493  gd1985-11-21s1t08.flac
     8:28.320     146396204 B   cxx   --   ---xx   flac  0.7356  gd1985-11-21s1t09.flac
     4:46.761      82587110 B   cxx   --   ---xx   flac  0.7615  gd1985-11-21s1t10.flac
     1:12.320      20828204 B   cxx   --   ---xx   flac  0.6986  gd1985-11-21s2t01.flac
    12:39.760     218810924 B   cxx   --   ---xx   flac  0.7602  gd1985-11-21s2t02.flac
     7:20.120     126754604 B   cxx   --   ---xx   flac  0.7457  gd1985-11-21s2t03.flac
    13:44.253     237385004 B   cxx   --   ---xx   flac  0.7584  gd1985-11-21s2t04.flac
     7:44.107     133662764 B   cxx   --   ---xx   flac  0.7390  gd1985-11-21s2t05.flac
     8:19.880     143965484 B   cxx   --   ---xx   flac  0.7167  gd1985-11-21s2t06.flac
     8:48.533     152217644 B   cxx   --   ---xx   flac  0.7284  gd1985-11-21s2t07.flac
     8:26.453     145858604 B   cxx   --   ---xx   flac  0.7448  gd1985-11-21s2t08.flac
     2:06.840      36529964 B   cxx   --   ---xx   flac  0.7492  gd1985-11-21s2t09.flac
     4:48.853      83189804 B   cxx   --   ---xx   flac  0.7602  gd1985-11-21s2t10.flac
     4:42.093      81242924 B   cxx   --   ---xx   flac  0.7667  gd1985-11-21s2t11.flac
     5:41.922      98473616 B   cxx   --   ---xx   flac  0.7570  gd1985-11-21s2t12.flac
   136:05.603    2351694566 B                            0.7459  (22 files)

No errors occured.




More information about the bittorrent mailing list