[bittorrent] gd1985-11-20.aud.bernstein.135121.flac2448

Automated Mailer noreply-bt.e at etree.org
Tue Feb 2 01:17:11 UTC 2016


Band:           Grateful Dead
Torrent Name:   gd1985-11-20.aud.bernstein.135121.flac2448
Uploaded by:    nfagdtrfb
DB Link:        http://db.etree.org/shn/135121
Details:        http://bt.etree.org/details.php?id=584767

Contact the seeder at http://db.etree.org/nfagdtrfb

If the link to this show does not work, it was probably removed for
being non-trade-friendly.

Description / text file:
-------------------------
GRATEFUL DEAD
Henry J. Kaiser Convention Center
Oakland CA
11-20-1985

24bit/48kHz file-set

s1t01 crowd
s1t02 Jack Straw
s1t03 Peggy-O
s1t04 C.C. Rider
s1t05 Stagger Lee
s1t06 My Brother Esau
s1t07 High Time
s1t08 crowd & false start
s1t09 Beat it on Down the Line >
s1t10 Promised Land >
s1t11 Don't Ease Me In

s2t01 Iko Iko
s2t02 Lost Sailor >
s2t03 Saint of Circumstance >
s2t04 Terrapin >
s2t05 Jam >
s2t06 I Don't Need Love >
s2t07 Drums >
s2t08 Space >
s2t09 Stella Blue >
s2t10 Sugar Magnolia
s2t11 Encore: U.S. Blues

AUD: Unknown mics > Sony TC-D5 > Maxell MX-Metal 90's. Recording by Jon Bernstein.

Transfer: MAC > Nakamichi CR-5A > Edirol FA-66 > Wavelab 2448 > CD-Wave (24bit output) > TLH > FLAC 2448 tagged. Transferred by Andrew F. 01/2016

Note: Mix issues during Jack Straw. Jerry plays on first two minutes of Drums. Patch from ID-92898 Drums 0:41 > 5:41.

    length     expanded size    cdr  WAVE problems  fmt   ratio  filename
     2:33.787      44290604 B   cxx   --   ---xx   flac  0.6719  gd1985-11-20s1t01.flac
     5:32.053      95631404 B   cxx   --   ---xx   flac  0.7319  gd1985-11-20s1t02.flac
     8:40.160     149806124 B   cxx   --   ---xx   flac  0.7091  gd1985-11-20s1t03.flac
     7:31.427     130010924 B   cxx   --   ---xx   flac  0.7327  gd1985-11-20s1t04.flac
     7:02.973     121816364 B   cxx   --   ---xx   flac  0.7213  gd1985-11-20s1t05.flac
     4:26.320      76700204 B   cxx   --   ---xx   flac  0.7306  gd1985-11-20s1t06.flac
     7:07.360     123079724 B   cxx   --   ---xx   flac  0.7280  gd1985-11-20s1t07.flac
     1:00.067      17299244 B   cxx   --   ---xx   flac  0.6796  gd1985-11-20s1t08.flac
     3:06.400      53683244 B   cxx   --   ---xx   flac  0.7490  gd1985-11-20s1t09.flac
     4:24.560      76193324 B   cxx   --   ---xx   flac  0.7492  gd1985-11-20s1t10.flac
     3:04.803      53223446 B   cxx   --   ---xx   flac  0.7485  gd1985-11-20s1t11.flac
     6:47.467     117350444 B   cxx   --   ---xx   flac  0.7370  gd1985-11-20s2t01.flac
     7:06.013     122691884 B   cxx   --   ---xx   flac  0.7074  gd1985-11-20s2t02.flac
     7:12.147     124458284 B   cxx   --   ---xx   flac  0.7365  gd1985-11-20s2t03.flac
    11:41.413     202007084 B   cxx   --   ---xx   flac  0.7257  gd1985-11-20s2t04.flac
     6:03.467     104678444 B   cxx   --   ---xx   flac  0.7238  gd1985-11-20s2t05.flac
     7:19.373     126539564 B   cxx   --   ---xx   flac  0.7213  gd1985-11-20s2t06.flac
     6:29.880     112285484 B   cxx   --   ---xx   flac  0.6978  gd1985-11-20s2t07.flac
     7:18.400     126259244 B   cxx   --   ---xx   flac  0.6953  gd1985-11-20s2t08.flac
     6:57.547     120253484 B   cxx   --   ---xx   flac  0.7068  gd1985-11-20s2t09.flac
     8:33.213     147805484 B   cxx   --   ---xx   flac  0.7421  gd1985-11-20s2t10.flac
     4:57.831      85775462 B   cxx   --   ---xx   flac  0.7457  gd1985-11-20s2t11.flac
   134:56.661    2331839468 B                            0.7235  (22 files)

No errors occured.




More information about the bittorrent mailing list