[bittorrent] moe. 2016-01-28 Terminal West, Atlanta, Ga. - akg 483

Automated Mailer noreply-bt.e at etree.org
Mon Feb 1 04:44:14 UTC 2016


Band:           moe.
Torrent Name:   moe. 2016-01-28 Terminal West, Atlanta, Ga. - akg 483
Uploaded by:    barren
DB Link:        
Details:        http://bt.etree.org/details.php?id=584757

Contact the seeder at http://db.etree.org/barren

If the link to this show does not work, it was probably removed for
being non-trade-friendly.

Description / text file:
-------------------------
moe.
2016-01-28
Terminal West, Atlanta, Ga.

Source: AKG c480b/ck63 (pos dfc 1st balcony rail )>V3 (24/96)>sd722
Transfer: firewire>wavelab 6.10 [Crystal Resampler (downsample) iZotope Ozone 4 (dither)]>CDWav (splits)>FLACFrontend level 6>foobar2000 (tagging)
taped and transferred by John Barren
A Team Dirty South Recording
Home Team


I: Blue Jeans Pizza > Rise, Tambourine* > Deep This Time*, Mar-DeMa, Brittle End > Seat Of My Pants
II: Zed Naught Z >(nh) Down Boy > McBain, Threw It All Away, Yodelittle > Wicked Awesome
Enc: Crab Eyes
NOTES

{* w/ AJ Ghent on guitar} 

Set 1
01. tuning/greeting
02. Blue Jeans Pizza>
03. Rise
04. Tambourine>*
05. Deep This Time*
06. Mar-DeMa
07. Brittle End>
08. Seat Of My Pants

Set 2
01. tuning
02. Zed Naught Z>(nh)
03. Down Boy> 
04. McBain
05. Threw It All Away
06. Yodelittle>
07. Wicked Awesome
08. encore break 
09. Alnouncements
10. Crab Eyes

* w/ AJ Ghent on guitar

Shntool 3.0.4
    length     expanded size    cdr  WAVE problems  fmt   ratio  filename
     0:30.22        5343788 B   ---   --   ---xx   flac  0.4432  moe.2016-01-28s1t01.flac
    13:48.01      146061596 B   ---   --   ---xx   flac  0.5715  moe.2016-01-28s1t02.flac
     7:51.05       83096204 B   ---   --   ---xx   flac  0.5870  moe.2016-01-28s1t03.flac
    10:31.09      111329612 B   ---   --   ---xx   flac  0.5348  moe.2016-01-28s1t04.flac
     6:23.23       67615340 B   ---   --   ---xx   flac  0.5890  moe.2016-01-28s1t05.flac
     7:43.38       81762620 B   ---   --   ---xx   flac  0.5305  moe.2016-01-28s1t06.flac
     7:37.35       80697164 B   ---   --   ---xx   flac  0.5516  moe.2016-01-28s1t07.flac
    11:12.70      118705484 B   ---   --   ---xx   flac  0.5942  moe.2016-01-28s1t08.flac
     1:32.51       16348796 B   ---   --   ---xx   flac  0.4394  moe.2016-01-28s2t01.flac
     8:52.20       93891884 B   ---   --   ---xx   flac  0.5581  moe.2016-01-28s2t02.flac
    11:22.48      120417740 B   ---   --   ---xx   flac  0.5770  moe.2016-01-28s2t03.flac
    22:06.43      234007580 B   ---   --   ---xx   flac  0.5733  moe.2016-01-28s2t04.flac
     6:12.46       65729036 B   ---   --   ---xx   flac  0.5639  moe.2016-01-28s2t05.flac
    28:28.46      301399436 B   ---   --   ---xx   flac  0.5523  moe.2016-01-28s2t06.flac
     9:08.53       96791900 B   ---   --   ---xx   flac  0.6300  moe.2016-01-28s2t07.flac
     4:09.05       43935404 B   ---   --   ---xx   flac  0.4437  moe.2016-01-28s2t08.flac
     1:44.17       18385628 B   ---   --   ---xx   flac  0.4483  moe.2016-01-28s2t09.flac
     8:18.61       87990716 B   ---   --   ---xx   flac  0.6062  moe.2016-01-28s2t10.flac
   167:33.68     1773509928 B                            0.5645  (18 files)




More information about the bittorrent mailing list