[bittorrent] Donna Hopkins Band Americana In The Park Park Tavern Atlanta, Georgia 1/31/2016 (Schoeps CCM4V'S FOB)

Automated Mailer noreply-bt.e at etree.org
Mon Feb 1 02:42:22 UTC 2016


Band:           Other
Torrent Name:   Donna Hopkins Band Americana In The Park Park Tavern Atlanta, Georgia 1/31/2016 (Schoeps CCM4V'S FOB)
Uploaded by:    zmanatl
DB Link:        
Details:        http://bt.etree.org/details.php?id=584755

Contact the seeder at http://db.etree.org/zmanatl

If the link to this show does not work, it was probably removed for
being non-trade-friendly.

Description / text file:
-------------------------
Donna Hopkins
Park Tavern
Atlanta, Georgia
1/31/2016 

Source: Schoeps CCM4V's>Lunatec V2>Benchmark AD2K>
Sound Devices 722 (24/44)
FOB/DFC/KFC/ZFC/AARP 20' From Stage, 7' High
DSP: Sound Devices 722>Sound Forge 10.0>CD Wave>flac(16)
ID3 Tagged In Foobar 2000
Recorded By: Z-Man
Seeded By: Z-Man

Disc I 

01 Greeting/Banter
02 I've Got A Mind To Ramble
03 ?
04 Wheels
05 Keep Talkin' Love
06 You're The One
07 How Long
08 Dirty Alabama Road
09 *Hurtful Love
10 *Born With It
Filler: Cigar Store Indians 1/31/2016:
11 ?
12 ?

* With Samantha Alessi Jones On Vocals

Donna Hopkins - Guitar And Vocals
Richie Jones - Drums And Vocals
Michael Hurley - Bass And Vocals
Brad Nauman - Harmonica
Russ Still - Keyboards

donna2016-01-31d01t01.flac:809d5481e845c0f3e99723575aea1334
donna2016-01-31d01t02.flac:bdb98c87ea041b51861d83a2f5a4a5e8
donna2016-01-31d01t03.flac:ae8f5a3cf46800d4a854db01226c1f32
donna2016-01-31d01t04.flac:a935f782ed8f45f18b56b1f6a295d003
donna2016-01-31d01t05.flac:2e6a44ee37c42d22aad9c9c378cfcf28
donna2016-01-31d01t06.flac:4df60c2efcad5bb445c90a172fa9f499
donna2016-01-31d01t07.flac:2fcbe1d98fd9bf936d25c3545a0c7da7
donna2016-01-31d01t08.flac:9a9fca11fcbdfe6976dc905494d2eb6a
donna2016-01-31d01t09.flac:54af5d33533825cb960d95f922403fba
donna2016-01-31d01t10.flac:bbfa3aa146207776a95a776d25ff6027
donna2016-01-31d01t11.flac:21ea80489213a2d386b69c1d864bc65a
donna2016-01-31d01t12.flac:f5d875f1dad9877df7efae3f98707a16
donna2016-01-31d01t13.flac:f830a528b08d1030ef91f4ad16c70bdf

  length     expanded size    cdr  WAVE problems  fmt   ratio  filename
     0:49.10        8667164 B   ---   --   ---xx   flac  0.3341  donna2016-01-31d01t01.flac
     6:47.26       71855996 B   ---   --   ---xx   flac  0.5481  donna2016-01-31d01t02.flac
     8:47.15       92998124 B   ---   --   ---xx   flac  0.4617  donna2016-01-31d01t03.flac
     5:41.51       60272396 B   ---   --   ---xx   flac  0.4412  donna2016-01-31d01t04.flac
     7:26.46       78782636 B   ---   --   ---xx   flac  0.4788  donna2016-01-31d01t05.flac
     6:14.55       66103004 B   ---   --   ---xx   flac  0.5642  donna2016-01-31d01t06.flac
     6:42.17       70952828 B   ---   --   ---xx   flac  0.5070  donna2016-01-31d01t07.flac
     8:09.55       86389004 B   ---   --   ---xx   flac  0.5237  donna2016-01-31d01t08.flac
     5:17.08       55937660 B   ---   --   ---xx   flac  0.3789  donna2016-01-31d01t09.flac
     9:01.64       95582972 B   ---   --   ---xx   flac  0.5281  donna2016-01-31d01t10.flac
     4:02.55       42818204 B   ---   --   ---xx   flac  0.5184  donna2016-01-31d01t11.flac
     4:59.37       52830668 B   ---   --   ---xx   flac  0.5550  donna2016-01-31d01t12.flac
     4:44.13       50128220 B   ---   --   ---xx   flac  0.5315  donna2016-01-31d01t13.flac
    78:44.02      833318876 B                            0.5015  (13 files)











More information about the bittorrent mailing list