[bittorrent] Phish 2016-01-01 Madison Square Garden New York, NY Microtech Gefell mg210>Sonosax SX-m32>Edirol R-44 **16bit**

Automated Mailer noreply-bt.e at etree.org
Mon Feb 1 02:08:12 UTC 2016


Band:           Phish
Torrent Name:   Phish 2016-01-01 Madison Square Garden New York, NY Microtech Gefell mg210>Sonosax SX-m32>Edirol R-44 **16bit**
Uploaded by:    andyjah
DB Link:        
Details:        http://bt.etree.org/details.php?id=584753

Contact the seeder at http://db.etree.org/andyjah

If the link to this show does not work, it was probably removed for
being non-trade-friendly.

Description / text file:
-------------------------
Phish
2016-01-01
Madison Square Garden
New York, NY

mics were pointed at stacks from the ots 

Microtech Gefell mg210>Sonosax SX-m32>Edirol R-44(24bit/48khz) 

WAV>USB>Macbook Pro>Wave Editor(tracking,fades,resample(izotope)/dither(mbit+)to 16 bit/44.1k)>XAct(FLAC 8,ffp,fix sbe,tagging)

Recorded by John Lynch

Transferred and seeded by Andy Murray

There are a few gain adjustments made during Stealing Time from the Faulty Plan then it balances out the rest of the show

Set I 

01. crowd 
02. Stealing Time From The Faulty Plan
03. Heavy Things
04. How Many People Are You?
05. Stash
06. Undermind
07. Rift
08. Wingsuit
09. Ocelot
10. Lawn Boy
11. Run Like An Antelope

Set II

01. crowd 
02. Down With Disease 
03. Dirt
04. Halfway To The Moon 
05. Theme From The Bottom 
06. Light 
07. Fuego 
08. Slave To The Traffic Light
09. encore break
10. Farmhouse

;flac fingerprints generated by xACT 2.37 on 2016-02-01 01:54:21 +0000

ph2016-01-01.mg210.sxm32.1644.s1t01.flac:4f5183a7c3f4c8d2818cbe3a98865511
ph2016-01-01.mg210.sxm32.1644.s1t02.flac:49260c45b995b20aeafe277482ae42fa
ph2016-01-01.mg210.sxm32.1644.s1t03.flac:eb7f4cdec934352b72f26ebcae353923
ph2016-01-01.mg210.sxm32.1644.s1t04.flac:c1c4cecb75170083ff0925f281568fc1
ph2016-01-01.mg210.sxm32.1644.s1t05.flac:af70592a7fba9848042f65e4150d6d6e
ph2016-01-01.mg210.sxm32.1644.s1t06.flac:73f4a573ca172bcae12d71d38e8d27b0
ph2016-01-01.mg210.sxm32.1644.s1t07.flac:261e2c4ab8a5c46c2ee6eab3772825ca
ph2016-01-01.mg210.sxm32.1644.s1t08.flac:9508f94559187db493cd0a3de45c58d4
ph2016-01-01.mg210.sxm32.1644.s1t09.flac:a2729ab3df17233ae975be85e1314baf
ph2016-01-01.mg210.sxm32.1644.s1t10.flac:4bd4c0b15da4eda7454005fceb5a750c
ph2016-01-01.mg210.sxm32.1644.s1t11.flac:542433eaccdf024ad65cd96e6ace369f
ph2016-01-01.mg210.sxm32.1644.s2t01.flac:daff50797aaaf1c9319d9caa895c449b
ph2016-01-01.mg210.sxm32.1644.s2t02.flac:4c07bf5b9ef38421521a9f6fb8ff2631
ph2016-01-01.mg210.sxm32.1644.s2t03.flac:2590b33a25be6bcb00b404d9addf82f5
ph2016-01-01.mg210.sxm32.1644.s2t04.flac:30a10c2267827cc1dcdf494b8620a6c2
ph2016-01-01.mg210.sxm32.1644.s2t05.flac:b01b37a04dd77a9907ccc4e8bfda3504
ph2016-01-01.mg210.sxm32.1644.s2t06.flac:6a7fe5abb870c65ac2d3d04944135302
ph2016-01-01.mg210.sxm32.1644.s2t07.flac:36acd2257344e4471804857bf6bff4fb
ph2016-01-01.mg210.sxm32.1644.s2t08.flac:a67c1f64d985522c44f5784c59cafa8f
ph2016-01-01.mg210.sxm32.1644.s2t09.flac:d64fc2ea0c0cb3c619672f4805096ef9
ph2016-01-01.mg210.sxm32.1644.s2t10.flac:445f1931f1e5e2a3574a75fb2eef3c59

    length     expanded size    cdr  WAVE problems  fmt   ratio  filename
     0:53.17        9389228 B   ---   --   -----    wav  1.0000  ph2016-01-01.mg210.sxm32.1644.s1t01.wav
     5:11.39       54952172 B   ---   --   -----    wav  1.0000  ph2016-01-01.mg210.sxm32.1644.s1t02.wav
     6:25.47       68024588 B   ---   --   -----    wav  1.0000  ph2016-01-01.mg210.sxm32.1644.s1t03.wav
     7:37.28       80680700 B   ---   --   -----    wav  1.0000  ph2016-01-01.mg210.sxm32.1644.s1t04.wav
    11:32.71      122235836 B   ---   --   -----    wav  1.0000  ph2016-01-01.mg210.sxm32.1644.s1t05.wav
    11:15.19      119114732 B   ---   --   -----    wav  1.0000  ph2016-01-01.mg210.sxm32.1644.s1t06.wav
     6:22.68       67544780 B   ---   --   -----    wav  1.0000  ph2016-01-01.mg210.sxm32.1644.s1t07.wav
     8:48.63       93287420 B   ---   --   -----    wav  1.0000  ph2016-01-01.mg210.sxm32.1644.s1t08.wav
    10:24.62      110219468 B   ---   --   -----    wav  1.0000  ph2016-01-01.mg210.sxm32.1644.s1t09.wav
     3:12.26       33929996 B   ---   --   -----    wav  1.0000  ph2016-01-01.mg210.sxm32.1644.s1t10.wav
    12:07.73      128414540 B   ---   --   -----    wav  1.0000  ph2016-01-01.mg210.sxm32.1644.s1t11.wav
     0:52.15        9208124 B   ---   --   -----    wav  1.0000  ph2016-01-01.mg210.sxm32.1644.s2t01.wav
    14:57.09      158252012 B   ---   --   -----    wav  1.0000  ph2016-01-01.mg210.sxm32.1644.s2t02.wav
     5:09.43       54608780 B   ---   --   -----    wav  1.0000  ph2016-01-01.mg210.sxm32.1644.s2t03.wav
     6:54.39       73121372 B   ---   --   -----    wav  1.0000  ph2016-01-01.mg210.sxm32.1644.s2t04.wav
     8:40.09       91749212 B   ---   --   -----    wav  1.0000  ph2016-01-01.mg210.sxm32.1644.s2t05.wav
    17:42.34      187416812 B   ---   --   -----    wav  1.0000  ph2016-01-01.mg210.sxm32.1644.s2t06.wav
    11:18.54      119726252 B   ---   --   -----    wav  1.0000  ph2016-01-01.mg210.sxm32.1644.s2t07.wav
     9:27.73      100190540 B   ---   --   -----    wav  1.0000  ph2016-01-01.mg210.sxm32.1644.s2t08.wav
     3:57.44       41910332 B   ---   --   -----    wav  1.0000  ph2016-01-01.mg210.sxm32.1644.s2t09.wav
     6:22.15       67420124 B   ---   --   -----    wav  1.0000  ph2016-01-01.mg210.sxm32.1644.s2t10.wav
   169:15.23     1791397020 B                            1.0000  (21 files)




More information about the bittorrent mailing list