[bittorrent] gd1985-11-22.aud.bernstein.135126.flac11644

Automated Mailer noreply-bt.e at etree.org
Mon Feb 1 01:54:28 UTC 2016


Band:           Grateful Dead
Torrent Name:   gd1985-11-22.aud.bernstein.135126.flac11644
Uploaded by:    nfagdtrfb
DB Link:        http://db.etree.org/shn/135126
Details:        http://bt.etree.org/details.php?id=584751

Contact the seeder at http://db.etree.org/nfagdtrfb

If the link to this show does not work, it was probably removed for
being non-trade-friendly.

Description / text file:
-------------------------
GRATEFUL DEAD
Henry J. Kaiser Convention Center
Oakland CA
11-22-1985

16bit/44.1kHz file-set

s1t01 crowd
s1t02 Hell in a Bucket >
s1t03 Sugaree
s1t04 Minglewood Blues >
s1t05 Althea
s1t06 Cassidy
s1t07 Dupree's Diamond Blues >
s1t08 Let it Grow

s2t01 crowd
s2t02 Touch of Grey
s2t03 Estimated Prophet >
s2t04 Eyes of the World >
s2t05 Drums >
s2t06 Space >
s2t07 Morning Dew >
s2t08 Throwing Stones >
s2t09 Turn on Your Lovelight
s2t10 Encore: Brokedown Palace

AUD: Unknown mics > Sony TC-D5M > Maxell MX-Metal 90's. Recording by Jon Bernstein.

Transfer: MAC > Nakamichi CR-5A > Edirol FA-66 > Wavelab 2448 > CD-Wave (24bit output) > R8Brain > TLH > FLAC 1644 tagged. Transferred by Andrew F. 01/2016

Note: ID-98520 patches, crowd after Cassidy 5:54 > Dupree's 0:04, and Drums 7:30 > 8:16.

    length     expanded size    cdr  WAVE problems  fmt   ratio  filename
     2:06.63       22374620 B   ---   --   ---xx   flac  0.5432  gd1985-11-22s1t01.flac
     6:20.17       67072028 B   ---   --   ---xx   flac  0.6375  gd1985-11-22s1t02.flac
    10:46.21      114003836 B   ---   --   ---xx   flac  0.6275  gd1985-11-22s1t03.flac
     6:49.03       72154700 B   ---   --   ---xx   flac  0.6343  gd1985-11-22s1t04.flac
     7:59.40       84589724 B   ---   --   ---xx   flac  0.6194  gd1985-11-22s1t05.flac
     5:57.32       63050108 B   ---   --   ---xx   flac  0.6325  gd1985-11-22s1t06.flac
     6:29.07       68636108 B   ---   --   ---xx   flac  0.6431  gd1985-11-22s1t07.flac
    12:08.15      128454524 B   ---   --   ---xx   flac  0.6394  gd1985-11-22s1t08.flac
     1:00.15       10619324 B   ---   --   ---xx   flac  0.5222  gd1985-11-22s2t01.flac
     6:25.47       68024588 B   ---   --   ---xx   flac  0.6493  gd1985-11-22s2t02.flac
    10:01.01      106018796 B   ---   --   ---xx   flac  0.6313  gd1985-11-22s2t03.flac
    11:51.08      125439260 B   ---   --   ---xx   flac  0.6386  gd1985-11-22s2t04.flac
    10:50.69      114822332 B   ---   --   ---xx   flac  0.5669  gd1985-11-22s2t05.flac
     6:00.33       63581660 B   ---   --   ---xx   flac  0.5561  gd1985-11-22s2t06.flac
    10:38.74      112717292 B   ---   --   ---xx   flac  0.6225  gd1985-11-22s2t07.flac
     7:57.57       84276908 B   ---   --   ---xx   flac  0.6324  gd1985-11-22s2t08.flac
     4:51.13       51363020 B   ---   --   ---xx   flac  0.6396  gd1985-11-22s2t09.flac
     5:25.65       57482924 B   ---   --   ---xx   flac  0.6118  gd1985-11-22s2t10.flac
   133:39.55     1414681752 B                            0.6217  (18 files)

No errors occured.




More information about the bittorrent mailing list