[bittorrent] gd1985-11-21.aud.bernstein.135124.flac1644

Automated Mailer noreply-bt.e at etree.org
Mon Feb 1 01:54:22 UTC 2016


Band:           Grateful Dead
Torrent Name:   gd1985-11-21.aud.bernstein.135124.flac1644
Uploaded by:    nfagdtrfb
DB Link:        http://db.etree.org/shn/135124
Details:        http://bt.etree.org/details.php?id=584750

Contact the seeder at http://db.etree.org/nfagdtrfb

If the link to this show does not work, it was probably removed for
being non-trade-friendly.

Description / text file:
-------------------------
GRATEFUL DEAD
Henry J. Kaiser Convention Center
Oakland CA
11-21-1985

16bit/44.1kHz file-set

s1t01 crowd
s1t02 Big Boy Pete
s1t03 Dire Wolf
s1t04 Little Red Rooster
s1t05 Brown Eyed Women
s1t06 Me & My Uncle >
s1t07 Mexicali Blues
s1t08 Ramble on Rose
s1t09 /Looks Like Rain >
s1t10 Might as Well

s2t01 crowd
s2t02 Shakedown Street >
s2t03 Crazy Fingers >
s2t04 Playin' in the Band >
s2t05 She Belongs to Me >
s2t06 Drums >
s2t07 Space > The Other One >
s2t08 Wharf Rat >
s2t09 Playin' in the Band Reprise >
s2t10 Gimme Some Lovin' >
s2t11 Midnight Hour
s2t12 Encore: Walkin' the Dog

AUD: Unknown mics > Sony TC-D5 > Maxell MX-Metal 90's. Recording by Jon Bernstein.

Transfer: MAC > Nakamichi CR-5A > Edirol FA-66 > Wavelab 2448 > CD-Wave (24bit output) > R8Brain > TLH > FLAC 1644 tagged. Transferred by Andrew F. 01/2016

Note: LLRain cuts in, about ten seconds missing. Patches from ID-98519; crowd after Dire Wolf 4:09 > Rooster 0:03, and Drums 4:35 > 6:15.

    length     expanded size    cdr  WAVE problems  fmt   ratio  filename
     1:32.38       16318220 B   ---   --   ---xx   flac  0.5471  gd1985-11-21s1t01.flac
     3:15.26       34459196 B   ---   --   ---xx   flac  0.6397  gd1985-11-21s1t02.flac
     4:30.20       47675084 B   ---   --   ---xx   flac  0.6142  gd1985-11-21s1t03.flac
     6:54.26       73090796 B   ---   --   ---xx   flac  0.6334  gd1985-11-21s1t04.flac
     6:47.65       71947724 B   ---   --   ---xx   flac  0.6178  gd1985-11-21s1t05.flac
     3:00.51       31871996 B   ---   --   ---xx   flac  0.6420  gd1985-11-21s1t06.flac
     4:35.16       48547676 B   ---   --   ---xx   flac  0.6437  gd1985-11-21s1t07.flac
     6:39.12       70411868 B   ---   --   ---xx   flac  0.6345  gd1985-11-21s1t08.flac
     8:28.24       89667692 B   ---   --   ---xx   flac  0.6122  gd1985-11-21s1t09.flac
     4:46.58       50586860 B   ---   --   ---xx   flac  0.6557  gd1985-11-21s1t10.flac
     1:12.24       12757292 B   ---   --   ---xx   flac  0.5568  gd1985-11-21s2t01.flac
    12:39.57      134021708 B   ---   --   ---xx   flac  0.6518  gd1985-11-21s2t02.flac
     7:20.09       77637212 B   ---   --   ---xx   flac  0.6277  gd1985-11-21s2t03.flac
    13:44.19      145398332 B   ---   --   ---xx   flac  0.6481  gd1985-11-21s2t04.flac
     7:44.08       81868460 B   ---   --   ---xx   flac  0.6164  gd1985-11-21s2t05.flac
     8:19.66       88178876 B   ---   --   ---xx   flac  0.5840  gd1985-11-21s2t06.flac
     8:48.40       93233324 B   ---   --   ---xx   flac  0.6000  gd1985-11-21s2t07.flac
     8:26.34       89338412 B   ---   --   ---xx   flac  0.6266  gd1985-11-21s2t08.flac
     2:06.63       22374620 B   ---   --   ---xx   flac  0.6336  gd1985-11-21s2t09.flac
     4:48.64       50953772 B   ---   --   ---xx   flac  0.6517  gd1985-11-21s2t10.flac
     4:42.07       49761308 B   ---   --   ---xx   flac  0.6620  gd1985-11-21s2t11.flac
     5:41.70       60317084 B   ---   --   ---xx   flac  0.6480  gd1985-11-21s2t12.flac
   136:05.47     1440417512 B                            0.6291  (22 files)

No errors occured.




More information about the bittorrent mailing list