[bittorrent] Phish 2016-12-30 Madison Square Garden NY, NY Schoeps mk41v/kc5/cmc6>Sonosax SX-R4 **16bit**

Automated Mailer noreply-bt.e at etree.org
Sat Dec 31 17:00:33 UTC 2016


Band:           Phish
Torrent Name:   Phish 2016-12-30 Madison Square Garden NY,NY Schoeps mk41v/kc5/cmc6>Sonosax SX-R4 **16bit**
Uploaded by:    andyjah
DB Link:        
Details:        http://bt.etree.org/details.php?id=590591

Contact the seeder at http://db.etree.org/andyjah

If the link to this show does not work, it was probably removed for
being non-trade-friendly.

Description / text file:
-------------------------
Phish
2016-12-30
Madison Square Garden
New York, NY

mics were DIN setup in the OTS to the left of the soundboard

Schoeps mk41v>kc5>cmc6>Sonosax SX-R4 (24bit/96khz)

WAV>USB>MacBook Pro>Audacity(tracking,fades)>Sony Soundforge Convrt(resample(izotope,higher than highest settings)/dither(mbit+/ultra, high dither)to 16 bit/44.1k)>XAct(FLAC 8,ffp,fix sbe,tagging)

Recorded and transferred by Andy Murray

Set 1

crowd set 1
Carolina
Blaze On
The Moma Dance >
Gumbo
Cities
The Old Home Place
Bathtub Gin
Things People Do
My Friend My Friend >
Wilson
Sugar Shack
You Enjoy Myself

Set 2

crowd set 2
Tweezer >
Sparks >
Ghost >
Light >
Party Time
Wading In The Velvet Sea >
Rocky Top
encore break
Rock & Roll >
Tweezer Reprise

;flac fingerprints generated by xACT 2.38 on 2016-12-31 16:41:17 +0000

ph2016-12-30.mk41v.sxr4.1644.s1t01.flac:0904d41823133766ff41c72574b69333
ph2016-12-30.mk41v.sxr4.1644.s1t02.flac:1d2c1e94c73469bcfeaf0c283cf2c4b6
ph2016-12-30.mk41v.sxr4.1644.s1t03.flac:8f2c8e13393f1a9e89f429a8bcb5bacb
ph2016-12-30.mk41v.sxr4.1644.s1t04.flac:9692fabf061db8f9370007cc53d40f30
ph2016-12-30.mk41v.sxr4.1644.s1t05.flac:a34246fa10059c5fef0e601a2657984b
ph2016-12-30.mk41v.sxr4.1644.s1t06.flac:5d352ed655f5bc9cb1d8b66d11b60c80
ph2016-12-30.mk41v.sxr4.1644.s1t07.flac:9621a72a60d26c15fd8148f2eb527878
ph2016-12-30.mk41v.sxr4.1644.s1t08.flac:64dae5393d3e10e2fff70b9b19477958
ph2016-12-30.mk41v.sxr4.1644.s1t09.flac:9115684eeae624b55846e74722563249
ph2016-12-30.mk41v.sxr4.1644.s1t10.flac:431aa410e653b5d7e00ccb91f66d893d
ph2016-12-30.mk41v.sxr4.1644.s1t11.flac:74807f354068f8169610a460e891a8fd
ph2016-12-30.mk41v.sxr4.1644.s1t12.flac:4f31a2f6dde36dea2dea2759347d5c43
ph2016-12-30.mk41v.sxr4.1644.s1t13.flac:12daf30029ea05370a913c47cd03a746
ph2016-12-30.mk41v.sxr4.1644.s2t01.flac:15628896c10ef9382f8475eb42cff454
ph2016-12-30.mk41v.sxr4.1644.s2t02.flac:7d24d7fdcfc8731038ac84f8881b6e61
ph2016-12-30.mk41v.sxr4.1644.s2t03.flac:a1bf64b3e4d5f49e80f06b3dbc19c210
ph2016-12-30.mk41v.sxr4.1644.s2t04.flac:36b3486d4a9f82442caeb6b972be9ed6
ph2016-12-30.mk41v.sxr4.1644.s2t05.flac:1d11b4468f4b72d51a7c5edb444e14b8
ph2016-12-30.mk41v.sxr4.1644.s2t06.flac:2ac3bf03140d02c8fd99dbc106820d5b
ph2016-12-30.mk41v.sxr4.1644.s2t07.flac:fa645c8c19ee79d0cbd547893996defc
ph2016-12-30.mk41v.sxr4.1644.s2t08.flac:3b0919a323c5e90ac7160a692cf1d852
ph2016-12-30.mk41v.sxr4.1644.s2t09.flac:a2f190589e247363f928ea04071aa450
ph2016-12-30.mk41v.sxr4.1644.s2t10.flac:660e686154a33f4e2f551027fb77e183
ph2016-12-30.mk41v.sxr4.1644.s2t11.flac:787536e1a6dd7550938cc76a9949984a

    length     expanded size    cdr  WAVE problems  fmt   ratio  filename
     1:24.68       14977580 B   ---   --   -----    wav  1.0000  ph2016-12-30.mk41v.sxr4.1644.s1t01.wav
     1:39.17       17503628 B   ---   --   -----    wav  1.0000  ph2016-12-30.mk41v.sxr4.1644.s1t02.wav
     8:17.61       87814316 B   ---   --   -----    wav  1.0000  ph2016-12-30.mk41v.sxr4.1644.s1t03.wav
     8:02.36       85109516 B   ---   --   -----    wav  1.0000  ph2016-12-30.mk41v.sxr4.1644.s1t04.wav
     6:00.25       63562844 B   ---   --   -----    wav  1.0000  ph2016-12-30.mk41v.sxr4.1644.s1t05.wav
     8:38.30       91445804 B   ---   --   -----    wav  1.0000  ph2016-12-30.mk41v.sxr4.1644.s1t06.wav
     3:23.28       35875100 B   ---   --   -----    wav  1.0000  ph2016-12-30.mk41v.sxr4.1644.s1t07.wav
    14:09.49      149878892 B   ---   --   -----    wav  1.0000  ph2016-12-30.mk41v.sxr4.1644.s1t08.wav
     2:54.24       30750092 B   ---   --   -----    wav  1.0000  ph2016-12-30.mk41v.sxr4.1644.s1t09.wav
     5:59.06       63341756 B   ---   --   -----    wav  1.0000  ph2016-12-30.mk41v.sxr4.1644.s1t10.wav
     5:42.43       60429980 B   ---   --   -----    wav  1.0000  ph2016-12-30.mk41v.sxr4.1644.s1t11.wav
     6:59.69       74073932 B   ---   --   -----    wav  1.0000  ph2016-12-30.mk41v.sxr4.1644.s1t12.wav
    18:33.47      196443788 B   ---   --   -----    wav  1.0000  ph2016-12-30.mk41v.sxr4.1644.s1t13.wav
     0:48.49        8582492 B   ---   --   -----    wav  1.0000  ph2016-12-30.mk41v.sxr4.1644.s2t01.wav
    16:40.28      176465900 B   ---   --   -----    wav  1.0000  ph2016-12-30.mk41v.sxr4.1644.s2t02.wav
     2:04.48       21986540 B   ---   --   -----    wav  1.0000  ph2016-12-30.mk41v.sxr4.1644.s2t03.wav
    16:53.68      178853180 B   ---   --   -----    wav  1.0000  ph2016-12-30.mk41v.sxr4.1644.s2t04.wav
    15:40.11      165841916 B   ---   --   -----    wav  1.0000  ph2016-12-30.mk41v.sxr4.1644.s2t05.wav
     7:14.52       76679948 B   ---   --   -----    wav  1.0000  ph2016-12-30.mk41v.sxr4.1644.s2t06.wav
     9:00.06       95270156 B   ---   --   -----    wav  1.0000  ph2016-12-30.mk41v.sxr4.1644.s2t07.wav
     2:47.46       29567036 B   ---   --   -----    wav  1.0000  ph2016-12-30.mk41v.sxr4.1644.s2t08.wav
     3:08.36       33247916 B   ---   --   -----    wav  1.0000  ph2016-12-30.mk41v.sxr4.1644.s2t09.wav
     6:00.36       63588716 B   ---   --   -----    wav  1.0000  ph2016-12-30.mk41v.sxr4.1644.s2t10.wav
     6:32.31       69221756 B   ---   --   -----    wav  1.0000  ph2016-12-30.mk41v.sxr4.1644.s2t11.wav
   178:37.14     1890512784 B                            1.0000  (24 files)




More information about the bittorrent mailing list