[bittorrent] jg1982-04-21.jgjk.beyerM160.streeter.miller.sirmick.137461.sbeok.flac24e

Automated Mailer noreply-bt.e at etree.org
Sat Dec 31 14:58:12 UTC 2016


Band:           Garcia
Torrent Name:   jg1982-04-21.jgjk.beyerM160.streeter.miller.sirmick.137461.sbeok.flac24e
Uploaded by:    grateful darkstar
DB Link:        
Details:        http://bt.etree.org/details.php?id=590587

Contact the seeder at http://db.etree.org/grateful darkstar

If the link to this show does not work, it was probably removed for
being non-trade-friendly.

Description / text file:
-------------------------
Jerry Garcia & John Kahn
Beacon Theater,
New York NY
1982-04-21

Late Show


Source: Beyer M160 > Sony TC-D5M/Dolby B > Cassette Master
        Recorded Fob 2nd row center by Frank Streeter, patched out of Richie Stankiewicz
Tranafer: Cassette Master > Nakamichi CR-7A > Tascam DA-3000 (DSF 1-bit/5.8 MHz) > KORG Audiogate 4 > flac 24/96 (dolby decoded)
          transfered by Charlie Miller
Lineage: wav 24/96 > Adobe Audition 3.0.1 > iZotope RX4 Advanced > iZotope Ozone 5 Advanced >
         CD Wave > TLH > Flac24 



Set 1

01   It Takes A Lot To Laugh It Takes a Train To Cry
02   Stagger Lee
03   Dire Wolf
04   Valerie
05   Run For The Roses
06   Been All Around This World
07   Friend Of The Devil
08   Deep Elem Blues
  

Set II

01   Jack-A-Roe
02   Sing Me Back Home
03   Oh Babe It Ain't No Lie
04   Gommorah
05   Goin' Goin' Gone
06   Ripple
07   Reuben And Cherise

encore

08   Goodnite Irene *



Jerry Garcia - guitar, vocals
John Kahn - bass


guest:

Dr. John - piano *



Notes:

- The tape seems to have been paused after most tracks.  Most flowed into next song fairly well
  but it was necessary to patch in a section of crowd after "Run For The Roses".  Tape flips and a couple
  of drop outs have also been patched with Richie Stankiewicz's recording (recorded 2nd row center Beyer M160 > Sony TC-D5M)
  This source was also used to patch a couple of seconds during "Sing Me Back Home" and the first 3:12.2 of Jack-A-Roe
- The last 48.3 seconds of "Goodnight Irene patched with Bill Nolan's recording (2 Sennheiser MD421's > Sony TC-D5M dolby b,
  4th row center) 



Thanks to everyone involved


edited and mastered
SIRMick
December 2016


shntool output:

    length     expanded size    cdr  WAVE problems  fmt   ratio  filename
     0:45.800      26380844 B   cxx   --   ---xx   flac  0.5724  jgjk1982--04-21s1t 01.flac
     5:20.800     184780844 B   cxx   --   ---xx   flac  0.6008  jgjk1982--04-21s1t 02.flac
     5:53.400     203558444 B   cxx   --   ---xx   flac  0.6063  jgjk1982--04-21s1t 03.flac
     3:44.480     129300524 B   cxx   --   ---xx   flac  0.6072  jgjk1982--04-21s1t 04.flac
     6:25.187     221867564 B   cxx   --   ---xx   flac  0.6063  jgjk1982--04-21s1t 05.flac
     4:57.440     171325484 B   cxx   --   ---xx   flac  0.6046  jgjk1982--04-21s1t 06.flac
     4:00.560     138562604 B   cxx   --   ---xx   flac  0.5888  jgjk1982--04-21s1t 07.flac
     6:26.213     222458924 B   cxx   --   ---xx   flac  0.5935  jgjk1982--04-21s1t 08.flac
     7:25.867     256819244 B   cxx   --   ---xx   flac  0.6165  jgjk1982--04-21s1t 09.flac
     5:16.160     182108204 B   cxx   --   ---xx   flac  0.5546  jgjk1982--04-21s2t 01.flac
     6:41.787     231429164 B   cxx   --   ---xx   flac  0.5778  jgjk1982--04-21s2t 02.flac
     6:10.467     213388844 B   cxx   --   ---xx   flac  0.5628  jgjk1982--04-21s2t 03.flac
     6:37.840     229155884 B   cxx   --   ---xx   flac  0.5767  jgjk1982--04-21s2t 04.flac
     6:01.213     208058924 B   cxx   --   ---xx   flac  0.5770  jgjk1982--04-21s2t 05.flac
     4:38.653     160504364 B   cxx   --   ---xx   flac  0.5963  jgjk1982--04-21s2t 06.flac
     6:05.773     210685484 B   cxx   --   ---xx   flac  0.6112  jgjk1982--04-21s2t 07.flac
     6:09.093     212597804 B   cxx   --   ---xx   flac  0.5965  jgjk1982--04-21s2t 08.flac
    92:40.733    3202983148 B                            0.5921  (17 files)





More information about the bittorrent mailing list