[bittorrent] jg1982-04-21.jgjk.beyerM160.streeter.miller.sirmick.137460.sbeok.flac16 e

Automated Mailer noreply-bt.e at etree.org
Sat Dec 31 14:55:44 UTC 2016


Band:           Garcia
Torrent Name:   jg1982-04-21.jgjk.beyerM160.streeter.miller.sirmick.137460.sbeok.flac16 e
Uploaded by:    grateful darkstar
DB Link:        
Details:        http://bt.etree.org/details.php?id=590586

Contact the seeder at http://db.etree.org/grateful darkstar

If the link to this show does not work, it was probably removed for
being non-trade-friendly.

Description / text file:
-------------------------
Jerry Garcia & John Kahn
Beacon Theater,
New York NY
1982-04-21

Late Show


Source: Beyer M160 > Sony TC-D5M/Dolby B > Cassette Master
        Recorded Fob 2nd row center by Frank Streeter, patched out of Richie Stankiewicz
Tranafer: Cassette Master > Nakamichi CR-7A > Tascam DA-3000 (DSF 1-bit/5.8 MHz) > KORG Audiogate 4 > flac 24/96 (dolby decoded)
          transfered by Charlie Miller
Lineage: wav 24/96 > Adobe Audition 3.0.1 > iZotope RX4 Advanced > iZotope Ozone 5 Advanced > iZotope RX4 Advanced > wav 16/44.1 >
         CD Wave > TLH > Flac16



Set 1

01   crowd
02   It Takes A Lot To Laugh It Takes a Train To Cry
03   Stagger Lee
04   Dire Wolf
05   Valerie
06   Run For The Roses
07   Been All Around This World
08   Friend Of The Devil
09   Deep Elem Blues
  

Set II

01   Jack-A-Roe
02   Sing Me Back Home
03   Oh Babe It Ain't No Lie
04   Gommorah
05   Goin' Goin' Gone
06   Ripple
07   Reuben And Cherise

encore

08   Goodnite Irene *



Jerry Garcia - guitar, vocals
John Kahn - bass


guest:

Dr. John - piano *



Notes:

- The tape seems to have been paused after most tracks.  Most flowed into next song fairly well
  but it was necessary to patch in a section of crowd after "Run For The Roses".  Tape flips and a couple
  of drop outs have also been patched with Richie Stankiewicz's recording (recorded 2nd row center Beyer M160 > Sony TC-D5M)
  This source was also used to patch a couple of seconds during "Sing Me Back Home" and the first 3:12.2 of Jack-A-Roe
- The last 48.3 seconds of "Goodnight Irene patched with Bill Nolan's recording (2 Sennheiser MD421's > Sony TC-D5M dolby b,
  4th row center)



Thanks to everyone involved


edited and mastered
SIRMick
December 2016


shntool output:

    length     expanded size    cdr  WAVE problems  fmt   ratio  filename
     0:45.60        8079164 B   ---   --   ---xx   flac  0.5599  jgjk1982--04-21s1t01.flac
     5:20.60       56589164 B   ---   --   ---xx   flac  0.5957  jgjk1982--04-21s1t02.flac
     5:53.30       62339804 B   ---   --   ---xx   flac  0.6093  jgjk1982--04-21s1t03.flac
     3:44.36       39598316 B   ---   --   ---xx   flac  0.6135  jgjk1982--04-21s1t04.flac
     6:25.14       67946972 B   ---   --   ---xx   flac  0.6067  jgjk1982--04-21s1t05.flac
     4:57.33       52468460 B   ---   --   ---xx   flac  0.6104  jgjk1982--04-21s1t06.flac
     4:00.42       42434828 B   ---   --   ---xx   flac  0.5813  jgjk1982--04-21s1t07.flac
     6:26.16       68128076 B   ---   --   ---xx   flac  0.5884  jgjk1982--04-21s1t08.flac
     7:25.65       78650924 B   ---   --   ---xx   flac  0.6200  jgjk1982--04-21s1t09.flac
     5:16.12       55770668 B   ---   --   ---xx   flac  0.5243  jgjk1982--04-21s2t01.flac
     6:41.59       70875212 B   ---   --   ---xx   flac  0.5606  jgjk1982--04-21s2t02.flac
     6:10.35       65350364 B   ---   --   ---xx   flac  0.5436  jgjk1982--04-21s2t03.flac
     6:37.63       70179020 B   ---   --   ---xx   flac  0.5638  jgjk1982--04-21s2t04.flac
     6:01.16       63718076 B   ---   --   ---xx   flac  0.5663  jgjk1982--04-21s2t05.flac
     4:38.49       49154492 B   ---   --   ---xx   flac  0.5966  jgjk1982--04-21s2t06.flac
     6:05.58       64522460 B   ---   --   ---xx   flac  0.6246  jgjk1982--04-21s2t07.flac
     6:09.07       65108108 B   ---   --   ---xx   flac  0.5981  jgjk1982--04-21s2t08.flac
    92:40.55      980914108 B                            0.5872  (17 files)





More information about the bittorrent mailing list