[bittorrent] Widespread Panic Bridgestone Arena Nashville, Tennessee 12/30/2016 (Schoeps CCM4V'S FOB)

Automated Mailer noreply-bt.e at etree.org
Sat Dec 31 08:54:28 UTC 2016


Band:           Widespread Panic
Torrent Name:   Widespread Panic Bridgestone Arena Nashville, Tennessee 12/30/2016 (Schoeps CCM4V'S FOB) 
Uploaded by:    zmanatl
DB Link:        
Details:        http://bt.etree.org/details.php?id=590584

Contact the seeder at http://db.etree.org/zmanatl

If the link to this show does not work, it was probably removed for
being non-trade-friendly.

Description / text file:
-------------------------
Widespread Panic
Bridgestone Arena
Nashville, Tennessee
12/30/2016 

Source: Schoeps CCM4V's>Lunatec V2>Benchmark AD2K>
Sound Devices 722 (24/44)
FOB/DRFC/KFC/ZFC/AARP 50' From Stage, 6' High
DSP: Sound Devices 722>Sound Forge 10.0>CD Wave>flac(16)
ID3 Tagged In Foobar 2000
Recorded By: Z-Man
Seeded By: Z-Man

Disc I 1st Set

01 Greeting
02 Porch Song
03 Space Wrangler
04 Last Straw >
05 Jam >
06 Rock 
07 Postcard 
08 Diner >
09 Blackout Blues 

Disc II 1st Set Con't

01 Junior >
02 Fishwater >
03 Drum Solo >
04 Fishwater
2nd Set:
05 Greta >
06 Jam >
07 Bear's Gone Fishin' >
08 Surprise Valley >
09 Climb To Safety
10 Good People

Disc III 2nd Set Con't

01 North 
02 Saint Ex >
03 Drum Solo >
04 Ceasefire  
05 Steven's Cat 
06 Sell Sell Sell
Encore:
07 Protein Drink >
08 Sewing Machine
09 End Of The Show

wsp2016-12-30d01t01.flac:4f1ca8cd6826c708e344e6ebdc7129cb
wsp2016-12-30d01t02.flac:147bd415b6f116f89fd64d3655f76f39
wsp2016-12-30d01t03.flac:0460e7dc4fc83b95a62bd95f81f5d84d
wsp2016-12-30d01t04.flac:d4ff1be3262e65ae3453d7a07e2e2ec4
wsp2016-12-30d01t05.flac:4e1a64b0b0f68f41931c7c4c666f3ffb
wsp2016-12-30d01t06.flac:d198a9f7748c8c302027c596d74a85aa
wsp2016-12-30d01t07.flac:a27fc1cb3597296fa9e08c76ea7fa982
wsp2016-12-30d01t08.flac:21773ff4aa3126df1a5a5fa7314c0229
wsp2016-12-30d01t09.flac:420080cdb091463cc2dcbfd4e0b1c9c6
wsp2016-12-30d02t01.flac:33aeafbfa9c0172ac089618bdb6b092e
wsp2016-12-30d02t02.flac:794bbda3f33a3083fe6bfa79ee5be4ad
wsp2016-12-30d02t03.flac:3a36ce762dde5620e4a4092e3602cdd0
wsp2016-12-30d02t04.flac:9270f3536414c64c717ab5915d331d40
wsp2016-12-30d02t05.flac:e1fde5cb760958fed6a32ab2f937fc91
wsp2016-12-30d02t06.flac:4c832ed4e6f707c86cd613b9fb0a303e
wsp2016-12-30d02t07.flac:454cab033200915c96ac09e60c65f6fb
wsp2016-12-30d02t08.flac:4dcb040e0d07a91bf64f23346b96d3ed
wsp2016-12-30d02t09.flac:23e6f4e2c02ddce945f0e41e4a10795a
wsp2016-12-30d02t10.flac:7f48aa2a320e463b43847366ef5c411b
wsp2016-12-30d03t01.flac:3af482692f1e1b9faa383aa2008b19a5
wsp2016-12-30d03t02.flac:232c1c2f34ba8c13cf2ed4516c728354
wsp2016-12-30d03t03.flac:b800a7c5e67407552be9ffbfe99f7b93
wsp2016-12-30d03t04.flac:800c3410b56d0ebbbee0d4ecefed4e1b
wsp2016-12-30d03t05.flac:0cc4e8dcf72ea8f369516e5e8e9c9fa8
wsp2016-12-30d03t06.flac:6d1001ac1d0affe36e2e2cb7fa214f55
wsp2016-12-30d03t07.flac:b720d135a45c6959b838f80909b759cb
wsp2016-12-30d03t08.flac:a453e604a9584733c9b37e2348fbeae0
wsp2016-12-30d03t09.flac:bcb53385354191e04b30204ea519d77f

 length     expanded size    cdr  WAVE problems  fmt   ratio  filename
     0:28.63        5087420 B   ---   --   ---xx   flac  0.4187  wsp2016-12-30d01t01.flac
     5:10.36       54768716 B   ---   --   ---xx   flac  0.5342  wsp2016-12-30d01t02.flac
     9:51.70      104417084 B   ---   --   ---xx   flac  0.5200  wsp2016-12-30d01t03.flac
     7:08.72       75668588 B   ---   --   ---xx   flac  0.5050  wsp2016-12-30d01t04.flac
     3:05.16       32671676 B   ---   --   ---xx   flac  0.5012  wsp2016-12-30d01t05.flac
     8:39.18       91593980 B   ---   --   ---xx   flac  0.5111  wsp2016-12-30d01t06.flac
     4:32.17       48020828 B   ---   --   ---xx   flac  0.5403  wsp2016-12-30d01t07.flac
    16:30.01      174638396 B   ---   --   ---xx   flac  0.5145  wsp2016-12-30d01t08.flac
     7:18.15       77298524 B   ---   --   ---xx   flac  0.5356  wsp2016-12-30d01t09.flac
     6:22.35       67467164 B   ---   --   ---xx   flac  0.5616  wsp2016-12-30d02t01.flac
     5:58.05       63163004 B   ---   --   ---xx   flac  0.5747  wsp2016-12-30d02t02.flac
     2:09.72       22924988 B   ---   --   ---xx   flac  0.5723  wsp2016-12-30d02t03.flac
     4:40.22       49443788 B   ---   --   ---xx   flac  0.5459  wsp2016-12-30d02t04.flac
     7:31.09       79577612 B   ---   --   ---xx   flac  0.5230  wsp2016-12-30d02t05.flac
     2:24.19       25446332 B   ---   --   ---xx   flac  0.4974  wsp2016-12-30d02t06.flac
     7:55.31       83862956 B   ---   --   ---xx   flac  0.5384  wsp2016-12-30d02t07.flac
    10:26.61      110569916 B   ---   --   ---xx   flac  0.5332  wsp2016-12-30d02t08.flac
     6:15.72       66319388 B   ---   --   ---xx   flac  0.5396  wsp2016-12-30d02t09.flac
     6:16.44       66429932 B   ---   --   ---xx   flac  0.5456  wsp2016-12-30d02t10.flac
     9:43.26      102902396 B   ---   --   ---xx   flac  0.5544  wsp2016-12-30d03t01.flac
     7:29.08       79222460 B   ---   --   ---xx   flac  0.5090  wsp2016-12-30d03t02.flac
     9:35.32      101505308 B   ---   --   ---xx   flac  0.4998  wsp2016-12-30d03t03.flac
     9:08.29       96735452 B   ---   --   ---xx   flac  0.5144  wsp2016-12-30d03t04.flac
     4:50.10       51179564 B   ---   --   ---xx   flac  0.5505  wsp2016-12-30d03t05.flac
     6:09.30       65162204 B   ---   --   ---xx   flac  0.5573  wsp2016-12-30d03t06.flac
     5:59.65       63480524 B   ---   --   ---xx   flac  0.5304  wsp2016-12-30d03t07.flac
     5:25.65       57482924 B   ---   --   ---xx   flac  0.5506  wsp2016-12-30d03t08.flac
     5:42.31       60401756 B   ---   --   ---xx   flac  0.4480  wsp2016-12-30d03t09.flac
   186:49.74     1977442880 B                            0.5278  (28 files)









                      










More information about the bittorrent mailing list