[bittorrent] Phish 2016-12-29 Madison Square Garden NY, NY Schoeps mk41v/kc5/cmc6>Sonosax SX-R4 **16bit**

Automated Mailer noreply-bt.e at etree.org
Fri Dec 30 19:44:19 UTC 2016


Band:           Phish
Torrent Name:   Phish 2016-12-29 Madison Square Garden NY,NY Schoeps mk41v/kc5/cmc6>Sonosax SX-R4 **16bit**
Uploaded by:    andyjah
DB Link:        
Details:        http://bt.etree.org/details.php?id=590575

Contact the seeder at http://db.etree.org/andyjah

If the link to this show does not work, it was probably removed for
being non-trade-friendly.

Description / text file:
-------------------------
Phish
2016-12-29
Madison Square Garden
New York, NY

mics were DIN setup in the OTS to the right of the soundboard

Schoeps mk41v>kc5>cmc6>Sonosax SX-R4 (24bit/96khz)

WAV>USB>MacBook Pro>Audacity(tracking,fades)>Sony Soundforge Convrt(resample(izotope,higher than highest settings)/dither(mbit+/ultra, high dither)to 16 bit/44.1k)>XAct(FLAC 8,ffp,fix sbe,tagging)

Recorded and transferred by Andy Murray

Set 1

Intro
Sweet Adeline
Peaches En Regalia >
Mike's Song >
Secret Smile >
Weekapaug Groove
Roses Are Free
Poor Heart
46 Days
Brian & Robert
Beauty Of A Broken Heart
Theme From The Bottom >
Split Open & Melt


Set 2

Intro
Down With Disease >
What's The Use? >
Fuego >
Meatstick
Twenty Years Later > Kung > Twenty Years Later >
Makisupa Policeman
Harry Hood
Encore Break 
Julius

;flac fingerprints generated by xACT 2.38 on 2016-12-30 19:15:46 +0000

ph2016-10-29.mk41v.sxr4.1644.s1t01.flac:9e64974c67a083ab6a53fde4a4f2e4d2
ph2016-10-29.mk41v.sxr4.1644.s1t02.flac:b85077fc8a2ea889f35478a9d68403e0
ph2016-10-29.mk41v.sxr4.1644.s1t03.flac:fa987eac5dfc56fd3cdef4a26f41d89e
ph2016-10-29.mk41v.sxr4.1644.s1t04.flac:624bb2a324720bfd45a4772347f405d6
ph2016-10-29.mk41v.sxr4.1644.s1t05.flac:e460a157ab6b13b2a3a90a68076632ec
ph2016-10-29.mk41v.sxr4.1644.s1t06.flac:6165bfc45fd4c287a12ba439c8843889
ph2016-10-29.mk41v.sxr4.1644.s1t07.flac:03e60631c9fd6e45a2cc667d5a70b505
ph2016-10-29.mk41v.sxr4.1644.s1t08.flac:0523c25795f2e6f3a522e52b9fe976b2
ph2016-10-29.mk41v.sxr4.1644.s1t09.flac:66f31f5f8561d3452f62efb3b98826b9
ph2016-10-29.mk41v.sxr4.1644.s1t10.flac:d8b3b167fae039ff269d817e150d93f8
ph2016-10-29.mk41v.sxr4.1644.s1t11.flac:250665a9e13038ef627688fec2af53ad
ph2016-10-29.mk41v.sxr4.1644.s1t12.flac:8fca9930fcfa4c4ef3849a48ac22d905
ph2016-10-29.mk41v.sxr4.1644.s1t13.flac:c3ea2019a98d743fa7a4dbbd79ee5b23
ph2016-10-29.mk41v.sxr4.1644.s2t01.flac:60e37dfd69a6c84a95e7d4e2be9433de
ph2016-10-29.mk41v.sxr4.1644.s2t02.flac:77a73fa8be677e6f82183127d128759a
ph2016-10-29.mk41v.sxr4.1644.s2t03.flac:80df6eb4b24387393e44158e0fe0fb57
ph2016-10-29.mk41v.sxr4.1644.s2t04.flac:a8d209645fea62f335e0b34a2d2ecedc
ph2016-10-29.mk41v.sxr4.1644.s2t05.flac:69dc4aa508e02f4803735b442cb61b3d
ph2016-10-29.mk41v.sxr4.1644.s2t06.flac:49154d695cec80c6a877b0d413d90b09
ph2016-10-29.mk41v.sxr4.1644.s2t07.flac:02c1216f63835906cd4fba109d39fdc1
ph2016-10-29.mk41v.sxr4.1644.s2t08.flac:6a754f80886898baf5cb016e77eb27c4
ph2016-10-29.mk41v.sxr4.1644.s2t09.flac:03a8e2bf01c4dabb26007a7abcd6f439
ph2016-10-29.mk41v.sxr4.1644.s2t10.flac:88804d03651d523d8ca8e45040b00032

    length     expanded size    cdr  WAVE problems  fmt   ratio  filename
     1:05.41       11562476 B   ---   --   -----    wav  1.0000  ph2016-10-29.mk41v.sxr4.1644.s1t01.wav
     2:43.30       28823804 B   ---   --   -----    wav  1.0000  ph2016-10-29.mk41v.sxr4.1644.s1t02.wav
     3:23.39       35900972 B   ---   --   -----    wav  1.0000  ph2016-10-29.mk41v.sxr4.1644.s1t03.wav
     8:50.60       93633164 B   ---   --   -----    wav  1.0000  ph2016-10-29.mk41v.sxr4.1644.s1t04.wav
     5:08.03       54338300 B   ---   --   -----    wav  1.0000  ph2016-10-29.mk41v.sxr4.1644.s1t05.wav
     8:42.73       92252540 B   ---   --   -----    wav  1.0000  ph2016-10-29.mk41v.sxr4.1644.s1t06.wav
     5:31.13       58419020 B   ---   --   -----    wav  1.0000  ph2016-10-29.mk41v.sxr4.1644.s1t07.wav
     2:26.60       25895564 B   ---   --   -----    wav  1.0000  ph2016-10-29.mk41v.sxr4.1644.s1t08.wav
     9:14.00       97725644 B   ---   --   -----    wav  1.0000  ph2016-10-29.mk41v.sxr4.1644.s1t09.wav
     4:15.12       45010268 B   ---   --   -----    wav  1.0000  ph2016-10-29.mk41v.sxr4.1644.s1t10.wav
     5:39.55       59929004 B   ---   --   -----    wav  1.0000  ph2016-10-29.mk41v.sxr4.1644.s1t11.wav
    10:32.35      111567164 B   ---   --   -----    wav  1.0000  ph2016-10-29.mk41v.sxr4.1644.s1t12.wav
    12:13.18      129343580 B   ---   --   -----    wav  1.0000  ph2016-10-29.mk41v.sxr4.1644.s1t13.wav
     1:16.19       13451132 B   ---   --   -----    wav  1.0000  ph2016-10-29.mk41v.sxr4.1644.s2t01.wav
    15:23.39      162908972 B   ---   --   -----    wav  1.0000  ph2016-10-29.mk41v.sxr4.1644.s2t02.wav
     5:11.05       54872204 B   ---   --   -----    wav  1.0000  ph2016-10-29.mk41v.sxr4.1644.s2t03.wav
    11:33.61      122388716 B   ---   --   -----    wav  1.0000  ph2016-10-29.mk41v.sxr4.1644.s2t04.wav
     8:29.35       89869964 B   ---   --   -----    wav  1.0000  ph2016-10-29.mk41v.sxr4.1644.s2t05.wav
    10:13.37      108220268 B   ---   --   -----    wav  1.0000  ph2016-10-29.mk41v.sxr4.1644.s2t06.wav
    10:03.29      106437452 B   ---   --   -----    wav  1.0000  ph2016-10-29.mk41v.sxr4.1644.s2t07.wav
    13:23.17      141689228 B   ---   --   -----    wav  1.0000  ph2016-10-29.mk41v.sxr4.1644.s2t08.wav
     2:28.49       26222492 B   ---   --   -----    wav  1.0000  ph2016-10-29.mk41v.sxr4.1644.s2t09.wav
     8:27.59       89573612 B   ---   --   -----    wav  1.0000  ph2016-10-29.mk41v.sxr4.1644.s2t10.wav
   166:17.39     1760035540 B                            1.0000  (23 files)




More information about the bittorrent mailing list