[bittorrent] Widespread Panic Tunes For Tots Ryman Auditorium Nashville, Tennessee 12/29/2016 (Schoeps CCM4V'S FOB)

Automated Mailer noreply-bt.e at etree.org
Fri Dec 30 07:28:16 UTC 2016


Band:           Widespread Panic
Torrent Name:   Widespread Panic Tunes For Tots Ryman Auditorium Nashville, Tennessee 12/29/2016 (Schoeps CCM4V'S FOB) 
Uploaded by:    zmanatl
DB Link:        
Details:        http://bt.etree.org/details.php?id=590562

Contact the seeder at http://db.etree.org/zmanatl

If the link to this show does not work, it was probably removed for
being non-trade-friendly.

Description / text file:
-------------------------
 Widespread Panic
Tunes For Tots
Ryman Auditorium
Nashville, Tennessee
12/29/2016 

Source: Schoeps CCM4V's>Lunatec V2>Benchmark AD2K>
Sound Devices 722 (24/44)
FOB/DRFC/KFC/ZFC/AARP Section MF3,Row L,Between Seats 1 And 6, 6 1/2' High
DSP: Sound Devices 722>Sound Forge 10.0>CD Wave>flac(16)
ID3 Tagged In Foobar 2000
Recorded By: Z-Man
Seeded By: Z-Man

Disc I 1st Set

01 Announcement On Tunes For Tots By Bill From Columbus, Georgia
02 Greeting 
03 City Of Dreams >
04 The Take Out 
05 Wonderin'  >
06 Chunk Of Coal 
07 Gradle
08 Who Do You Belong To?
09 This Part Of Town
10 Walkin'
11 Nobody's Loss
12 No Sugar Tonight Oops
13 No Sugar Tonight >
14 New Mother Nature

Disc II 2nd Set

01 C Brown
02 Don't Be Denied
03 Tickle The Truth. 
04 Pickin' Up The Pieces 
05 Trouble
06 #Imitation Leather Shoes
07 Jamaiis Vu
08 Jack 
09 Ain't Life Grand
Encore:
10 Thanks
11 Many Rivers To Cross
12 Can't Find My Way Home

* Entire Show Was Acoustic. Also Duane's First Acoustic Show.  
# Jojo Solo on Piano And Vocals

wsp2016-12-29d01t01.flac:7cf6a68a458c37525308beb3dde8ebbd
wsp2016-12-29d01t02.flac:a95c29d42a041c7990edf5b41780193f
wsp2016-12-29d01t03.flac:651f6fd84e3b0ff6b78bb2cdd4938943
wsp2016-12-29d01t04.flac:e230834bdc281e2067223457632404f7
wsp2016-12-29d01t05.flac:68407ee7d6c6c170e4172e996be6e402
wsp2016-12-29d01t06.flac:256da5e313ef60828e1fd4126f017e38
wsp2016-12-29d01t07.flac:5f21ae77e4cc425ce15a786498a686cf
wsp2016-12-29d01t08.flac:88da6688f2cd512042b16df73586877c
wsp2016-12-29d01t09.flac:596c77cf7297aa9555ff34f832332a9f
wsp2016-12-29d01t10.flac:927efe9f3759727a2c15518e2a4ce864
wsp2016-12-29d01t11.flac:f94e7bf4c15dc1bd76346cd91798f3c0
wsp2016-12-29d01t12.flac:9b23908d8f93c8a0cc8ef0748a82c5ad
wsp2016-12-29d01t13.flac:c6005748f182332b8c4556a669bedb6c
wsp2016-12-29d01t14.flac:81f33f6818d9ec6e610d409c3685253e
wsp2016-12-29d02t01.flac:269f89e17cea830da9a0a851654946f3
wsp2016-12-29d02t02.flac:87f0e2747748639d07acb5a3e70da31d
wsp2016-12-29d02t03.flac:bcd8d05e6d2045ba5633873f920f5564
wsp2016-12-29d02t04.flac:573161f99caed7ce987e924bc3ab37d8
wsp2016-12-29d02t05.flac:24449eb0f7f3930b4428ede08186f71e
wsp2016-12-29d02t06.flac:e85e74229dc2934556a44eed9b8f862a
wsp2016-12-29d02t07.flac:a17e469353d350114e20b86ccf7daea9
wsp2016-12-29d02t08.flac:233b86b5dbbd7aa61904309ba75f8e7e
wsp2016-12-29d02t09.flac:ddef606fe068813e0693fea43681008c
wsp2016-12-29d02t10.flac:5746eb826980e5cb1fb2e95b5f7906fb
wsp2016-12-29d02t11.flac:baf50bc0c882ba0ec14e6c5911ba2bbf
wsp2016-12-29d02t12.flac:0dc29e58786783270a809ecb8f01c29d

 length     expanded size    cdr  WAVE problems  fmt   ratio  filename
     1:20.14       14144972 B   ---   --   ---xx   flac  0.4185  wsp2016-12-29d01t01.flac
     0:36.58        6486860 B   ---   --   ---xx   flac  0.4513  wsp2016-12-29d01t02.flac
     6:13.52       65919548 B   ---   --   ---xx   flac  0.4898  wsp2016-12-29d01t03.flac
     2:24.41       25498076 B   ---   --   ---xx   flac  0.5111  wsp2016-12-29d01t04.flac
     4:01.46       42620636 B   ---   --   ---xx   flac  0.5125  wsp2016-12-29d01t05.flac
     4:47.22       50678588 B   ---   --   ---xx   flac  0.5341  wsp2016-12-29d01t06.flac
     5:20.00       56448044 B   ---   --   ---xx   flac  0.5149  wsp2016-12-29d01t07.flac
     4:49.00       50979644 B   ---   --   ---xx   flac  0.5522  wsp2016-12-29d01t08.flac
     5:58.34       63231212 B   ---   --   ---xx   flac  0.5235  wsp2016-12-29d01t09.flac
     5:25.66       57485276 B   ---   --   ---xx   flac  0.5435  wsp2016-12-29d01t10.flac
     6:03.30       64103804 B   ---   --   ---xx   flac  0.4942  wsp2016-12-29d01t11.flac
     0:49.25        8702444 B   ---   --   ---xx   flac  0.4777  wsp2016-12-29d01t12.flac
     2:29.72       26452988 B   ---   --   ---xx   flac  0.5417  wsp2016-12-29d01t13.flac
     3:45.65       39842924 B   ---   --   ---xx   flac  0.5510  wsp2016-12-29d01t14.flac
     7:31.59       79695212 B   ---   --   ---xx   flac  0.4863  wsp2016-12-29d02t01.flac
     7:17.04       77096252 B   ---   --   ---xx   flac  0.5021  wsp2016-12-29d02t02.flac
     5:49.34       61643612 B   ---   --   ---xx   flac  0.5310  wsp2016-12-29d02t03.flac
     5:55.54       62749052 B   ---   --   ---xx   flac  0.5016  wsp2016-12-29d02t04.flac
     3:57.48       41919740 B   ---   --   ---xx   flac  0.4907  wsp2016-12-29d02t05.flac
     5:27.40       57776924 B   ---   --   ---xx   flac  0.4784  wsp2016-12-29d02t06.flac
     7:13.48       76494140 B   ---   --   ---xx   flac  0.5049  wsp2016-12-29d02t07.flac
     8:16.52       87616748 B   ---   --   ---xx   flac  0.5173  wsp2016-12-29d02t08.flac
     4:51.01       51334796 B   ---   --   ---xx   flac  0.5438  wsp2016-12-29d02t09.flac
     0:24.44        4337132 B   ---   --   ---xx   flac  0.4582  wsp2016-12-29d02t10.flac
     4:39.51       49335596 B   ---   --   ---xx   flac  0.4478  wsp2016-12-29d02t11.flac
     5:19.53       56396300 B   ---   --   ---xx   flac  0.5058  wsp2016-12-29d02t12.flac
   120:50.38     1278990520 B                            0.5091  (26 files)







More information about the bittorrent mailing list