[bittorrent] Trey Anastasio And Mike Gordon Plain Dealer Pavilion Cleveland, Ohio 7/19/2006 (Schoeps CCM4V'S FOB)

Automated Mailer noreply-bt.e at etree.org
Thu Dec 29 23:27:23 UTC 2016


Band:           Trey Anastasio
Torrent Name:   Trey Anastasio And Mike Gordon Plain Dealer Pavilion Cleveland, Ohio 7/19/2006 (Schoeps CCM4V'S FOB)
Uploaded by:    zmanatl
DB Link:        
Details:        http://bt.etree.org/details.php?id=590554

Contact the seeder at http://db.etree.org/zmanatl

If the link to this show does not work, it was probably removed for
being non-trade-friendly.

Description / text file:
-------------------------
Trey Anastasio And Mike Gordon
Plain Dealer Pavilion
Cleveland, Ohio
7/19/2006 

Source: Schoeps CCM4V's>Sound Devices 722 (24/44)
FOB/DFC/KFC/ZFC/AARP Section ,Row , 6 1/2' High
DSP: Sound Devices 722>Sound Forge 10.0>CD Wave>flac(16)
ID3 Tagged In Foobar 2000
Recorded By: Z-Man
Seeded By: Z-Man

Disc I 

01 Host Across The Potomac
02 Drifting
03 The Beltless Buckler
04 Mud City >
05 *Billy Jean
06 Sleep Again
07 Hap-Nappy

Disc II 2nd Set

01 These Eyes >
02 Get Back >
03 Mr. Completely >
04 Goodbye Head >
05 You've Got Me Floating >
06 On The Road Again > 
07 Wilson 
08 We're Still Having Fun Jam
09 Who Are You
Encore:
10 Dragonfly

trey2006-07-19d01t01.flac:5d1fa01a2af0fffd224c65d72ce330e5
trey2006-07-19d01t02.flac:eebaee520ff5497c96efb3fcd8635511
trey2006-07-19d01t03.flac:6db38a181274e082a8ae3f92f92dce62
trey2006-07-19d01t04.flac:6a134e650c25d6855ea4abe78c5534d2
trey2006-07-19d01t05.flac:7279424284166811c7e8f706b7a89ff4
trey2006-07-19d01t06.flac:a3c998c769a74ae67717a64a20acf5a5
trey2006-07-19d01t07.flac:c9ff755372d88ca86f56032a4082b766
trey2006-07-19d02t01.flac:3e10a01d63ec5b70d4c705fa07e6b7c8
trey2006-07-19d02t02.flac:a72a63651a7e90c602d056019fb52fed
trey2006-07-19d02t03.flac:4cb21637948a5fcfe48b03329cf14daf
trey2006-07-19d02t04.flac:df090e6cb3810b2762ca6647ac32197b
trey2006-07-19d02t05.flac:a711466fbeae2497468c19ffbf3846ce
trey2006-07-19d02t06.flac:9586d9e04bd5413657e264fc53953cbc
trey2006-07-19d02t07.flac:ea57f1063f1e4766c8d057bfa9abc539
trey2006-07-19d02t08.flac:265d33de30ad843e51ced44febd60dd3
trey2006-07-19d02t09.flac:af6b496621ac5384038d593617d5afb0
trey2006-07-19d02t10.flac:baed2ff6e9f8dc8fbed3fc94e23c3d6f

  length     expanded size    cdr  WAVE problems  fmt   ratio  filename
    10:39.01      112721996 B   ---   --   ---xx   flac  0.5694  trey2006-07-19d01t01.flac
     9:32.24      100957292 B   ---   --   ---xx   flac  0.5829  trey2006-07-19d01t02.flac
     6:26.23       68144540 B   ---   --   ---xx   flac  0.5605  trey2006-07-19d01t03.flac
     8:42.00       92080844 B   ---   --   ---xx   flac  0.5964  trey2006-07-19d01t04.flac
     9:20.24       98840492 B   ---   --   ---xx   flac  0.5710  trey2006-07-19d01t05.flac
     6:25.28       67979900 B   ---   --   ---xx   flac  0.5981  trey2006-07-19d01t06.flac
     9:42.01      102667196 B   ---   --   ---xx   flac  0.5668  trey2006-07-19d01t07.flac
     5:41.21       60201836 B   ---   --   ---xx   flac  0.5652  trey2006-07-19d02t01.flac
     3:02.18       32147180 B   ---   --   ---xx   flac  0.5827  trey2006-07-19d02t02.flac
    12:40.14      134096972 B   ---   --   ---xx   flac  0.5866  trey2006-07-19d02t03.flac
    20:49.50      220441244 B   ---   --   ---xx   flac  0.5143  trey2006-07-19d02t04.flac
     5:16.51       55862396 B   ---   --   ---xx   flac  0.4072  trey2006-07-19d02t05.flac
     2:45.23       29160140 B   ---   --   ---xx   flac  0.4255  trey2006-07-19d02t06.flac
     3:56.52       41752748 B   ---   --   ---xx   flac  0.4800  trey2006-07-19d02t07.flac
     2:32.14       26845772 B   ---   --   ---xx   flac  0.5329  trey2006-07-19d02t08.flac
    12:09.25      128654444 B   ---   --   ---xx   flac  0.6226  trey2006-07-19d02t09.flac
     8:19.24       88080092 B   ---   --   ---xx   flac  0.5595  trey2006-07-19d02t10.flac
   138:00.18     1460635084 B                            0.5581  (17 files)

















More information about the bittorrent mailing list