[bittorrent] Johnny Neel 66/16 CD Release Party 3rd & Lindsley Nashville, Tennessee 12/28/2016 (Schoeps CCM4V'S FOB)

Automated Mailer noreply-bt.e at etree.org
Thu Dec 29 20:39:20 UTC 2016


Band:           Other
Torrent Name:   Johnny Neel 66/16 CD Release Party 3rd & Lindsley Nashville, Tennessee 12/28/2016 (Schoeps CCM4V'S FOB)
Uploaded by:    zmanatl
DB Link:        
Details:        http://bt.etree.org/details.php?id=590553

Contact the seeder at http://db.etree.org/zmanatl

If the link to this show does not work, it was probably removed for
being non-trade-friendly.

Description / text file:
-------------------------
Johnny Neel
66/16 CD Release Party
3rd & Lindsley
Nashville, Tennessee
12/28/2016 

Source: Schoeps CCM4V's>Lunatec V2>Benchmark AD2K>
Sound Devices 722 (24/44)
FOB/DLFC/KFC/ZFC/AARP Clamped To The Left Balcony Rail, 10' From Stage
DSP: Sound Devices 722>Sound Forge 10.0>CD Wave>flac(16)
ID3 Tagged In Foobar 2000
Recorded By: Z-Man
Seeded By: Z-Man

Disc I 1st Set

01 Greeting BY Lt. Dan Of Lightning 100
02 Video Shown Of Johnny Neel And Many Of His Friends Paying Him Tribute
03 Lt. Dan Of Lightning 100
Johnny Neel Solo:
04 Cravin' For Love
05 Johnny Banter
06 Since You Said Goodbye
07 ?
08 Johnny Banter
09 My Kind Of People

Disc II 2nd Set

Johnny Neel And The Last Word:

01 Tuning/Greeting
02 ?
03 ?
04 *It Ain't Over Yet
05 *The Blues Ain't Nothin'
06 *?
07 *?
08 *Maydell

* With Nanette, Kelly, And Cindy On Vocals

The Last Word:
Johnny Neel - Keyboards And Vocals
Jack Pearson - Guitar
Randy Colton - Bass
Curt Redding - Drums

Disc III 3rd Set 

Johnny Neel And The Criminal Element:

01 Dave Pomeroy Pays Tribute To Johnny Neel
02 Johnny Banter
03 Every Kind Of Blues
04 ?
05 ?
06 Banter/Band Introductions
07 ?
08 ?
09 I Can Always Find My Way Back Home To You
10 Intro Jam >
11 ?
12 *?

* With Nanette, Kelly, And Cindy On Vocals

The Criminal Element:

Johnny Neel - Keyboards And Vocals
Curt Redding - Drums
Russell Wright - Bass
Randy Boen - Guitar

johnny2016-12-28d01t01.flac:26943b01df330d4e504e5e9607d6b033
johnny2016-12-28d01t02.flac:c449ea5bacc83a86ceaffbf32c34918f
johnny2016-12-28d01t03.flac:c194888bfbc751d946197fa1e97e5271
johnny2016-12-28d01t04.flac:c128fe7792e144d9e69e983ada14cf95
johnny2016-12-28d01t05.flac:3784902675b8e163d15d9bb90052b7a0
johnny2016-12-28d01t06.flac:6c9bf36d0c3b52755ca0c2a94980aa43
johnny2016-12-28d01t07.flac:97d5f9bd770e6fc1d6e4ee611a66090a
johnny2016-12-28d01t08.flac:a4f9a61362325ab6039eb35b8229603b
johnny2016-12-28d01t09.flac:e05995bf9c341d592303943239d0e24c
johnny2016-12-28d02t01.flac:99c086e4c3bc5af56707f4636a64053d
johnny2016-12-28d02t02.flac:2d4204ae56652a21d6e298c1ebf44b10
johnny2016-12-28d02t03.flac:df34c38bcee866a89cc34868a183ccf4
johnny2016-12-28d02t04.flac:b8ea2b1e11f18f2a42631ed246b0f51c
johnny2016-12-28d02t05.flac:c70c74e2f8a949d4dcf16fe849d70db3
johnny2016-12-28d02t06.flac:c9b27e49787c4e212095c22d02b6f54f
johnny2016-12-28d02t07.flac:28ae10512a3bb0cd1a4a5663108b37e1
johnny2016-12-28d02t08.flac:bcde33863ccaea8116f9e6e92c0030e5
johnny2016-12-28d03t01.flac:8107e6bfbc1cf6c3fcf26646fb7ef8a9
johnny2016-12-28d03t02.flac:a521ed26c0cedac37b29c1fcb3fabb48
johnny2016-12-28d03t03.flac:32a91aaf9220d4eff4919de6987b0cc4
johnny2016-12-28d03t04.flac:b4e9aa7ee4752bd2bb3ae04f335fed5c
johnny2016-12-28d03t05.flac:1418a20930804f49f994c7077428c94a
johnny2016-12-28d03t06.flac:7f8dd15a1b48c92ffeaf8d9d835e2aed
johnny2016-12-28d03t07.flac:ff5fe2d7ed50f4f5b877dd86bfd7fbda
johnny2016-12-28d03t08.flac:2bc6bc20898c7f17fbf9c724fa2849b0
johnny2016-12-28d03t09.flac:143b1e78bdfa214f67fff1a29efc0d5e
johnny2016-12-28d03t10.flac:d34ba95620ade8d1fb52755c3fcb96af
johnny2016-12-28d03t11.flac:85b6f4133f857ffb451d4442efe192b8
johnny2016-12-28d03t12.flac:b96cedcbece2d823d4c981a54b799c28

 length     expanded size    cdr  WAVE problems  fmt   ratio  filename
     1:21.31       14361356 B   ---   --   ---xx   flac  0.4160  johnny2016-12-28d01t01.flac
    33:17.68      352430780 B   ---   --   ---xx   flac  0.3703  johnny2016-12-28d01t02.flac
     3:25.52       36284348 B   ---   --   ---xx   flac  0.3254  johnny2016-12-28d01t03.flac
     3:25.15       36197324 B   ---   --   ---xx   flac  0.3302  johnny2016-12-28d01t04.flac
     3:24.41       36082076 B   ---   --   ---xx   flac  0.3176  johnny2016-12-28d01t05.flac
     5:13.11       55239116 B   ---   --   ---xx   flac  0.3479  johnny2016-12-28d01t06.flac
     6:45.03       71449100 B   ---   --   ---xx   flac  0.3465  johnny2016-12-28d01t07.flac
     1:53.32       20008508 B   ---   --   ---xx   flac  0.3303  johnny2016-12-28d01t08.flac
     7:31.14       79589372 B   ---   --   ---xx   flac  0.3697  johnny2016-12-28d01t09.flac
     2:22.68       25208780 B   ---   --   ---xx   flac  0.3138  johnny2016-12-28d02t01.flac
     7:06.18       75188780 B   ---   --   ---xx   flac  0.5347  johnny2016-12-28d02t02.flac
     7:55.05       83801804 B   ---   --   ---xx   flac  0.4570  johnny2016-12-28d02t03.flac
     6:48.17       72011228 B   ---   --   ---xx   flac  0.4856  johnny2016-12-28d02t04.flac
     7:52.15       83296124 B   ---   --   ---xx   flac  0.5365  johnny2016-12-28d02t05.flac
     6:11.03       65451500 B   ---   --   ---xx   flac  0.5238  johnny2016-12-28d02t06.flac
     6:40.06       70574156 B   ---   --   ---xx   flac  0.6104  johnny2016-12-28d02t07.flac
     5:19.68       56431580 B   ---   --   ---xx   flac  0.6040  johnny2016-12-28d02t08.flac
     4:24.43       46670780 B   ---   --   ---xx   flac  0.2962  johnny2016-12-28d03t01.flac
     1:22.59       14603612 B   ---   --   ---xx   flac  0.2903  johnny2016-12-28d03t02.flac
     5:46.13       61065020 B   ---   --   ---xx   flac  0.5257  johnny2016-12-28d03t03.flac
     8:27.51       89554796 B   ---   --   ---xx   flac  0.5651  johnny2016-12-28d03t04.flac
     8:10.65       86588924 B   ---   --   ---xx   flac  0.4826  johnny2016-12-28d03t05.flac
     2:41.32       28475708 B   ---   --   ---xx   flac  0.3586  johnny2016-12-28d03t06.flac
     3:35.08       37944860 B   ---   --   ---xx   flac  0.5938  johnny2016-12-28d03t07.flac
     7:17.58       77223260 B   ---   --   ---xx   flac  0.5608  johnny2016-12-28d03t08.flac
     7:38.35       80873564 B   ---   --   ---xx   flac  0.4840  johnny2016-12-28d03t09.flac
     1:18.25       13818044 B   ---   --   ---xx   flac  0.3412  johnny2016-12-28d03t10.flac
     4:40.46       49500236 B   ---   --   ---xx   flac  0.5916  johnny2016-12-28d03t11.flac
     6:20.39       67123772 B   ---   --   ---xx   flac  0.5745  johnny2016-12-28d03t12.flac
   178:17.41     1887048508 B                            0.4555  (29 files)




















More information about the bittorrent mailing list