[bittorrent] Phish 2016-12-28 Madison Square Garden NY, NY Schoeps mk41v/kc5/cmc6>Sonosax SX-R4 **16bit**

Automated Mailer noreply-bt.e at etree.org
Thu Dec 29 16:15:51 UTC 2016


Band:           Phish
Torrent Name:   Phish 2016-12-28 Madison Square Garden NY,NY Schoeps mk41v/kc5/cmc6>Sonosax SX-R4 **16bit**
Uploaded by:    andyjah
DB Link:        
Details:        http://bt.etree.org/details.php?id=590547

Contact the seeder at http://db.etree.org/andyjah

If the link to this show does not work, it was probably removed for
being non-trade-friendly.

Description / text file:
-------------------------
Phish
2016-12-28
Madison Square Garden
New York, NY

mics were DIN setup in the OTS to the right of the soundboard

Schoeps mk41v>kc5>cmc6>Sonosax SX-R4 (24bit/96khz)

WAV>USB>MacBook Pro>Audacity(tracking,fades)>Sony Soundforge Convrt(resample(izotope,higher than highest settings)/dither(mbit+/ultra, high dither)to 16 bit/44.1k)>XAct(FLAC 8,ffp,fix sbe,tagging)

Recorded and transferred by Andy Murray

Set One:

01. crowd set 1
02. The Star Spangled Banner
03. Stealing Time From The Faulty Plan
04. Lonesome Cowboy Bill >
05. Free
06. Train Song
07. Prince Caspian
08. Roggae
09. Funky Bitch
10. Halfway To The Moon
11. Corinna
12. Stash
13. Cavern

Set Two:

01. Crowd set 2
02. Wolfman's Brother
03. Golden Age ->
04. Simple >
05. Chalk Dust Torture
06. Martian Monster ->
07. Tweezer Reprise ->
08. Martian Monster
09. Wingsuit >
10. Possum
11. Encore break
12. Good Times Bad Times

;flac fingerprints generated by xACT 2.38 on 2016-12-29 15:35:27 +0000

ph2016-12-28.mk41v.sxr4.1644.s1t01.flac:16bb39a0026b906682faed2b5317c8f0
ph2016-12-28.mk41v.sxr4.1644.s1t02.flac:866d3270bf6650b66c40223c3b816d8f
ph2016-12-28.mk41v.sxr4.1644.s1t03.flac:7fc30234486039b121e408f086faa7fd
ph2016-12-28.mk41v.sxr4.1644.s1t04.flac:8b134ca5f0247e91e756063e8946eb15
ph2016-12-28.mk41v.sxr4.1644.s1t05.flac:2e9d46a4721e585a1d9aebf20e457bd9
ph2016-12-28.mk41v.sxr4.1644.s1t06.flac:933d0fe4c8db0cbcedaf1a3deefec905
ph2016-12-28.mk41v.sxr4.1644.s1t07.flac:b943769d1290d584f6a897b5a732b203
ph2016-12-28.mk41v.sxr4.1644.s1t08.flac:5f96198348ddd074a88ba0f95d10eae7
ph2016-12-28.mk41v.sxr4.1644.s1t09.flac:6e11f57dffaede2a48a8f8150dc3374f
ph2016-12-28.mk41v.sxr4.1644.s1t10.flac:7eb52ed43afa3f793a0a21bfec2e1db6
ph2016-12-28.mk41v.sxr4.1644.s1t11.flac:16de18f8ddbb7593071f68c10036d09f
ph2016-12-28.mk41v.sxr4.1644.s1t12.flac:7955f59e47a55bca60e381d743942418
ph2016-12-28.mk41v.sxr4.1644.s1t13.flac:1dd1ab884a107f867dade38f24581fe5
ph2016-12-28.mk41v.sxr4.1644.s2t01.flac:04b07f2d478537c3f6216e21160a507d
ph2016-12-28.mk41v.sxr4.1644.s2t02.flac:28ee0369563961eaac1d679e0fdd8a4a
ph2016-12-28.mk41v.sxr4.1644.s2t03.flac:e2083cb7bdf127e714a5fbec7310bed3
ph2016-12-28.mk41v.sxr4.1644.s2t04.flac:09b8a6390422d0751fdfefb7d517e9cb
ph2016-12-28.mk41v.sxr4.1644.s2t05.flac:93f115c9aac59c1d0e71f3f912380018
ph2016-12-28.mk41v.sxr4.1644.s2t06.flac:7dcb07c926979cec8d583e1e9ca11df1
ph2016-12-28.mk41v.sxr4.1644.s2t07.flac:2609dbf63d0b7fe4b94eb2a6f9a4412b
ph2016-12-28.mk41v.sxr4.1644.s2t08.flac:6617b880426ea01da3f1934e7b8ac8c4
ph2016-12-28.mk41v.sxr4.1644.s2t09.flac:52b578d0c7540382eca70df24449939b
ph2016-12-28.mk41v.sxr4.1644.s2t10.flac:14c7afe5fbd7186775bdc91a9430faa5
ph2016-12-28.mk41v.sxr4.1644.s2t11.flac:c2151a91987a3b0115eb6a16e1838abb
ph2016-12-28.mk41v.sxr4.1644.s2t12.flac:2543ad5bccc93af9c9b9ae634d2961a5

    length     expanded size    cdr  WAVE problems  fmt   ratio  filename
     1:32.03       16235900 B   ---   --   -----    wav  1.0000  ph2016-12-28.mk41v.sxr4.1644.s1t01.wav
     1:57.21       20688236 B   ---   --   -----    wav  1.0000  ph2016-12-28.mk41v.sxr4.1644.s1t02.wav
     5:53.61       62412716 B   ---   --   -----    wav  1.0000  ph2016-12-28.mk41v.sxr4.1644.s1t03.wav
     3:11.26       33753596 B   ---   --   -----    wav  1.0000  ph2016-12-28.mk41v.sxr4.1644.s1t04.wav
     8:47.53       93087500 B   ---   --   -----    wav  1.0000  ph2016-12-28.mk41v.sxr4.1644.s1t05.wav
     2:55.41       30966476 B   ---   --   -----    wav  1.0000  ph2016-12-28.mk41v.sxr4.1644.s1t06.wav
     8:28.49       89726492 B   ---   --   -----    wav  1.0000  ph2016-12-28.mk41v.sxr4.1644.s1t07.wav
    10:09.72      107596988 B   ---   --   -----    wav  1.0000  ph2016-12-28.mk41v.sxr4.1644.s1t08.wav
     6:34.61       69645116 B   ---   --   -----    wav  1.0000  ph2016-12-28.mk41v.sxr4.1644.s1t09.wav
    10:05.08      106740860 B   ---   --   -----    wav  1.0000  ph2016-12-28.mk41v.sxr4.1644.s1t10.wav
     5:08.13       54361820 B   ---   --   -----    wav  1.0000  ph2016-12-28.mk41v.sxr4.1644.s1t11.wav
    11:44.69      124347932 B   ---   --   -----    wav  1.0000  ph2016-12-28.mk41v.sxr4.1644.s1t12.wav
     6:02.00       63856844 B   ---   --   -----    wav  1.0000  ph2016-12-28.mk41v.sxr4.1644.s1t13.wav
     1:31.34       16132412 B   ---   --   -----    wav  1.0000  ph2016-12-28.mk41v.sxr4.1644.s2t01.wav
    13:00.19      137636732 B   ---   --   -----    wav  1.0000  ph2016-12-28.mk41v.sxr4.1644.s2t02.wav
    20:36.45      218136284 B   ---   --   -----    wav  1.0000  ph2016-12-28.mk41v.sxr4.1644.s2t03.wav
     8:35.33       90923660 B   ---   --   -----    wav  1.0000  ph2016-12-28.mk41v.sxr4.1644.s2t04.wav
     6:56.55       73511804 B   ---   --   -----    wav  1.0000  ph2016-12-28.mk41v.sxr4.1644.s2t05.wav
     4:36.13       48717020 B   ---   --   -----    wav  1.0000  ph2016-12-28.mk41v.sxr4.1644.s2t06.wav
     3:26.01       36340796 B   ---   --   -----    wav  1.0000  ph2016-12-28.mk41v.sxr4.1644.s2t07.wav
     1:29.59       15838412 B   ---   --   -----    wav  1.0000  ph2016-12-28.mk41v.sxr4.1644.s2t08.wav
    10:09.05      107439404 B   ---   --   -----    wav  1.0000  ph2016-12-28.mk41v.sxr4.1644.s2t09.wav
    10:07.32      107150108 B   ---   --   -----    wav  1.0000  ph2016-12-28.mk41v.sxr4.1644.s2t10.wav
     3:05.46       32742236 B   ---   --   -----    wav  1.0000  ph2016-12-28.mk41v.sxr4.1644.s2t11.wav
     6:59.01       73913996 B   ---   --   -----    wav  1.0000  ph2016-12-28.mk41v.sxr4.1644.s2t12.wav
   173:04.70     1831903340 B                            1.0000  (25 files)




More information about the bittorrent mailing list