[bittorrent] gd1980-10-31 Partial Show.Radio City.NY.audmsc.happyjack.Flac16 [New To Circulation]

Automated Mailer noreply-bt.e at etree.org
Thu Dec 29 03:00:25 UTC 2016


Band:           Grateful Dead
Torrent Name:   gd1980-10-31 Partial Show.Radio City.NY.audmsc.happyjack.Flac16  [New To Circulation]
Uploaded by:    dedhed69
DB Link:        
Details:        http://bt.etree.org/details.php?id=590539

Contact the seeder at http://db.etree.org/dedhed69

If the link to this show does not work, it was probably removed for
being non-trade-friendly.

Description / text file:
-------------------------

  
NEW SOURCE TO CIRCULATION

GRATEFUL DEAD
Radio City Music Hall
1260 Avenue of the  (Sixth Avenue), 
Manhattan, New York City New York
October 31,1980

     A Gratefully Little Deadicated Feat Recording 
[Happy Jack's Masters Cassette Analog Collection #3]
 *** 16 Bit Version *** 1st TIME IN CIRCULATION 

Taping: Friend & Happy Jack
All Transfering, Mastering & Editing by Happy Jack [aka; dedhed69] 12/2016

Audience Recording [This is A Clone]
Source: powerful directional card mics. aprox. 6' [mics and/or pole were bumped I noticed. see notes]

Location: stage left: which means we were on the right center up toward the front. Everybody was taller than me. Lol. good thing I was in charde of levels only

Lineage: directional card mics >TC-D5 [recording level 5] Master Cassette [Sony UCX90]

For The Clones
All Master tapes [were synced] - on a Aiwa CX-NA555
This Show used a Sony UCX90 with High (CrO2 Tape OFF] NO Dolby marked 

Tape Transfer: Sharp RT100 Deck > Sony PCM-M10 > Scandisc Ultra MicroSD 8gb [class 10] on 12/27/2016
Settings: Sharp RT100 Deck: Dolby NR - OFF & CrO2 - OFF
Settings: Sony PCM-M10 manual record level at 6
Recording Mode: LPCM [wav] 96.00kHz/24bit

Recording Transfer: Sony PCM-M10 [ SanDisk Ultra [MicroSDHC] 8gb (class10)] > my Laptob HD by way of USB > 96.00kHz/24bit wav 

Mastering & Editing: 96.00kHz/24bit wav > AA3 was used for +/- db gains, remove mic bumps. No music was Lost, Altered and/or Touched.

Converting Sample Rate: Adobe Audition 3.0 was also used to to convert 96.00kHz/24bit.WAV to sample rate to 44.10kHz/16bit with High Qulaity at 100%, Pre Post Filter checked, Dither enabled, Dither Depth at 1, P.D.F set to Triangular and No Noise Shaping. 

CD Wave Editor To Split Tracks & converted to Flac16 [Level 6]
TLH to fix SBE

Set 2  [Partial]
01. Brown Eyed Women ^ > 
02. Looks Like Rain
03. Deal > Outro

SET BREAK

Set 3 
01. Dont Ease Me In
02. Lost Sailor >
03. Saint Of Circumstance >
04. Franklins Tower > Drums ^
05. Fire On The Mountain ^ >
06. Not Fade Away >
07. Stella Blue >
08. Goin Down The Road Feeling Bad >
09. Good Lovin'

Show Notes
This was one of my favorite shows. Jerry's voice is clear & so is his guitar playing tight with Billy. 
The 3rd set is AWESOME. TOO MANY HIGHLIGHTS TO MENTION

Band Memberes
Jerry Garcia - guitar & vocals
Bob Weir - guitar & vocals
Bill Kreutzmann - drums
Phil Lesh - bass & vocals
Mickey Hart - percussion 
Brent Mydland - keyboards & vocals

Source Notes
^ - Fade in
^ - Drums are cut from tape flip [did not fade out in case want to use with patch]
^ - Fire Fades in with Space
The place was sold out & packed. Not my type of comfort zone for me as a young person then. Good thing my friend was big &knew where to go & had people around us.
I believe we had a bad cable and/or connection somewhere now & then you here a click. I got rid of some major ones along with some mic bumps. Overall a nice recording very little audience & no echoing from the the Hall as I sampled all other recordings.

SUPPORT THE ARTIST
http://www.dead.net/
Buy there Music. Go See Them LIVE !!

THIS IS ONE OF MY FAVORITE SHOWS . GREAT SET LIST, SOUND & AWESOME PLAYING FROM THE BAND THIS NIGHT !!!!!!

Happy Jack Final Notes
*** Thanks to my friend for teaching me & the great times taping from 77-90
# - I will go with this as being the clone of our original MASTER cassette due to I seem to hear some tape noise. I could be wrong ? If so then it is the master
  The rest has been stolen along with many others while I was in the Hospital for Spinal Bacteria Meningitas. The  good news there r about 75 tapes still here I would & Like them see the light & ears of others as my health is declinig. Plus it is good therapy for me to do this once again. I have not touched most of these tapes in 25 - 30 years. God Bless & Enjoy Jack


added md5
added ffp
added shn tool.len text
SBEs Fixed

DO NOT SELL !!!!

ENJOY/SHARE WITH FAMILY & FRIENDS [That you trust & just loves the music]

Happy Jack
Please beware of us old school tapers who may have lost the tolerance for being disrespected! After so many years how many end up asking for a show!!!
Please Be Kind

MD5
1770f06b64567e91deaa00220a2cca46 *gd1980-10-31 Partial Show. Set2  Track01. Brown Eyed Women-fixed.flac
e70402d30bfe462dea14acaf509209d8 *gd1980-10-31 Partial Show. Set2  Track02. Looks Like Rain-fixed.flac
4753241221985955938e147bd803d2d4 *gd1980-10-31 Partial Show. Set2  Track03. Deal  Outro-fixed.flac
ed8f574237508aeb8e1ce51d919a769e *gd1980-10-31 Partial Show. Set3 Track01. Dont Ease Me In-fixed.flac
1e876f44299c411c6e7668cb676e3d02 *gd1980-10-31 Partial Show. Set3 Track02. Lost Sailor-fixed.flac
ce350bda267b3b1305243dce8f54ac22 *gd1980-10-31 Partial Show. Set3 Track03. Saint Of Circumstance-fixed.flac
b007530fbcbedee7b6bee40e54d73f37 *gd1980-10-31 Partial Show. Set3 Track04. Franklins Tower Drums-fixed.flac
7e56f293378a9cee8d8da30c18223b2a *gd1980-10-31 Partial Show. Set3 Track05. Fire On The Mountain -fixed.flac
dc92c8451345f7cd8ad4d372bab18023 *gd1980-10-31 Partial Show. Set3 Track06. Not Fade Away -fixed.flac
761904060f0ba30954573936b40af4ca *gd1980-10-31 Partial Show. Set3 Track07. Stella Blue-fixed.flac
ca9f87500fe5036b51cfad110c669e1d *gd1980-10-31 Partial Show. Set3 Track08. Goin Down The Road Feeling Bad-fixed.flac
c672c538e1531ca73d562ebb92661d4f *gd1980-10-31 Partial Show. Set3 Track09. Good Lovin-fixed.flac

    length     expanded size    cdr  WAVE problems  fmt   ratio  filename
     4:22.61       46360316 B   ---   --   ---xx   flac  0.5470  gd1980-10-31 Partial Show. Set2  Track01. Brown Eyed Women-fixed.flac
     6:28.69       68605532 B   ---   --   ---xx   flac  0.5430  gd1980-10-31 Partial Show. Set2  Track02. Looks Like Rain-fixed.flac
     6:07.27       64802348 B   ---   --   ---xx   flac  0.5643  gd1980-10-31 Partial Show. Set2  Track03. Deal  Outro-fixed.flac
     3:28.58       36827660 B   ---   --   ---xx   flac  0.5750  gd1980-10-31 Partial Show. Set3 Track01. Dont Ease Me In-fixed.flac
     5:45.17       60898028 B   ---   --   ---xx   flac  0.5705  gd1980-10-31 Partial Show. Set3 Track02. Lost Sailor-fixed.flac
     6:12.45       65726684 B   ---   --   ---xx   flac  0.5758  gd1980-10-31 Partial Show. Set3 Track03. Saint Of Circumstance-fixed.flac
    11:12.55      118670204 B   ---   --   ---xx   flac  0.5706  gd1980-10-31 Partial Show. Set3 Track04. Franklins Tower Drums-fixed.flac
     9:45.01      103196396 B   ---   --   ---xx   flac  0.5948  gd1980-10-31 Partial Show. Set3 Track05. Fire On The Mountain -fixed.flac
     6:03.19       64077932 B   ---   --   ---xx   flac  0.6019  gd1980-10-31 Partial Show. Set3 Track06. Not Fade Away -fixed.flac
     9:04.48       96074540 B   ---   --   ---xx   flac  0.5917  gd1980-10-31 Partial Show. Set3 Track07. Stella Blue-fixed.flac
     5:35.71       59261036 B   ---   --   ---xx   flac  0.5953  gd1980-10-31 Partial Show. Set3 Track08. Goin Down The Road Feeling Bad-fixed.flac
     5:56.52       62920748 B   ---   --   ---xx   flac  0.5972  gd1980-10-31 Partial Show. Set3 Track09. Good Lovin-fixed.flac
    80:03.73      847421424 B                            0.5786  (12 files)





More information about the bittorrent mailing list