[bittorrent] gd1980-10-31 Partial Show.Radio City.NY.audmsc.happyjack.Flac24 [New To Circulation]

Automated Mailer noreply-bt.e at etree.org
Thu Dec 29 02:57:12 UTC 2016


Band:           Grateful Dead
Torrent Name:   gd1980-10-31 Partial Show.Radio City.NY.audmsc.happyjack.Flac24  [New To Circulation]
Uploaded by:    dedhed69
DB Link:        
Details:        http://bt.etree.org/details.php?id=590538

Contact the seeder at http://db.etree.org/dedhed69

If the link to this show does not work, it was probably removed for
being non-trade-friendly.

Description / text file:
-------------------------
  
NEW SOURCE TO CIRCULATION

GRATEFUL DEAD
Radio City Music Hall
1260 Avenue of the  (Sixth Avenue), 
Manhattan, New York City New York
October 31,1980

     A Gratefully Little Deadicated Feat Recording 
[Happy Jack's Masters Cassette Analog Collection #3]
 *** 24Bit Version *** 1st TIME IN CIRCULATION 

Taping: Friend & Happy Jack
All Transfering, Mastering & Editing by Happy Jack [aka; dedhed69] 12/2016

Audience Recording [This is A Clone]
Source: powerful directional card mics. aprox. 6' [mics and/or pole were bumped I noticed in recording. see notes]

Location: left center: we were up toward the front by Jerry. Everybody was taller than me. Lol. good thing I was in charge of levels only

Lineage: directional card mics >TC-D5 [recording level 5] Master Cassette [Sony UCX90]

For The Clones
All Master tapes [were synced] - on a Aiwa CX-NA555
This Show used a Sony UCX90 with High (CrO2 Tape OFF] NO Dolby marked 

Tape Transfer: Sharp RT100 Deck [Sony UCX90] > Sony PCM-M10 > Scandisc Ultra MicroSD 8gb [class 10] on 12/27/2016
Settings: Sharp RT100 Deck: Dolby NR - OFF & CrO2 - OFF
Settings: Sony PCM-M10 manual record level at 6
Recording Mode: LPCM [wav] 96.00kHz/24bit

Recording Transfer: Sony PCM-M10 [ SanDisk Ultra [MicroSDHC] 8gb (class10)] > my Laptob HD by way of USB > 96.00kHz/24bit wav 

Mastering & Editing: 96.00kHz/24bit wav > AA3 was used for +/- db gains, removing of mic bumps. No music was Lost, Altered and/or Touched.

CD Wave Editor To Split Tracks & converted to Flac24 [Level 6]

Set 2  [Partial]
01. Brown Eyed Women ^ > 
02. Looks Like Rain
03. Deal > Outro

SET BREAK

Set 3 
01. Dont Ease Me In
02. Lost Sailor >
03. Saint Of Circumstance >
04. Franklins Tower > Drums ^
05. Fire On The Mountain ^ >
06. Not Fade Away >
07. Stella Blue >
08. Goin Down The Road Feeling Bad >
09. Good Lovin'

Show Notes
This was one of my favorite shows. Jerry's voice is clear & so is his guitar playing tight with Billy. 
The 3rd set is AWESOME. TOO MANY HIGHLIGHTS TO MENTION

Band Memberes
Jerry Garcia - guitar & vocals
Bob Weir - guitar & vocals
Bill Kreutzmann - drums
Phil Lesh - bass & vocals
Mickey Hart - percussion 
Brent Mydland - keyboards & vocals

Source Notes
^ - Fade in
^ - Drums are cut from tape flip [did not fade out in case want to use with patch]
^ - Fire Fades in with Space
The place was sold out & packed. Not my type of comfort zone for me as a young person then. Good thing my friend was big &knew where to go & had people around us.
I believe we had a bad cable and/or connection somewhere now & then you here a click. I got rid of some major ones along with some mic bumps. Overall a nice recording very little audience & no echoing from the the Hall as I sampled all other recordings.

SUPPORT THE ARTIST
http://www.dead.net/
Buy there Music. Go See Them LIVE !!

THIS IS ONE OF MY FAVORITE SHOWS . GREAT SET LIST, SOUND & AWESOME PLAYING FROM THE BAND THIS NIGHT !!!!!!

Happy Jack Final Notes
*** Thanks to my friend for teaching me & the great times taping from 77-90
# - I will go with this as being the CLONE of our original MASTER cassette due to I seem to hear some tape noise. I could be wrong ? If so then it is the master
  The rest has been stolen along with many others while I was in the Hospital for Spinal Bacteria Meningitas. The  good news there r about 75 tapes still here I would & Like them see the light & ears of others as my health is declinig. Plus it is good therapy for me to do this once again. I have not touched most of these tapes in 25 - 30 years. God Bless & Enjoy Jack

added md5
added ffp
added shn tool.len text

DO NOT SELL !!!!

ENJOY/SHARE WITH FAMILY & FRIENDS [That you trust & just loves the music]

Happy Jack
Please beware of us old school tapers who may have lost the tolerance for being disrespected! After so many years how many end up asking for a show!!!
Please Be Kind

MD5
57f8cc9227f99f7e26e639b3af4a60a9 *gd1980-10-31 Partial Show. Set2  Track01. Brown Eyed Women  .flac
4b98e1c3bddd4f5dfeaf3cdd1e73f40e *gd1980-10-31 Partial Show. Set2  Track02. Looks Like Rain.flac
ec30e1ab7a56c280b2bf9b55ac917f10 *gd1980-10-31 Partial Show. Set2  Track03. Deal  Outro.flac
42c9579db099fc611464600228862992 *gd1980-10-31 Partial Show. Set3 Track01. Dont Ease Me In.flac
2a6a15c34b863d5af24d2766f16d86b1 *gd1980-10-31 Partial Show. Set3 Track02. Lost Sailor.flac
ef5c0af3354fc73b1589b277659c16a5 *gd1980-10-31 Partial Show. Set3 Track03. Saint Of Circumstance.flac
9d07f4f21084132201cdd6ea4bca142d *gd1980-10-31 Partial Show. Set3 Track04. Franklins Tower Drums.flac
3df3d03c4709e95760026de0c134b4b4 *gd1980-10-31 Partial Show. Set3 Track05. Fire On The Mountain .flac
de998f170dbb441f39316096d3618086 *gd1980-10-31 Partial Show. Set3 Track06. Not Fade Away .flac
b9112af7ce776f937463af795324e6f6 *gd1980-10-31 Partial Show. Set3 Track07. Stella Blue.flac
eb13e3d20d0a7764d662bbf14f5219a8 *gd1980-10-31 Partial Show. Set3 Track08. Goin Down The Road Feeling Bad.flac
d781486b068135123c9d62e34b70ffe8 *gd1980-10-31 Partial Show. Set3 Track09. Good Lovin.flac

    length     expanded size    cdr  WAVE problems  fmt   ratio  filename
     4:22.813     151380524 B   cxx   --   ---xx   flac  0.6079  gd1980-10-31 Partial Show. Set2  Track01. Brown Eyed Women  .flac
     6:28.920     224017964 B   cxx   --   ---xx   flac  0.6049  gd1980-10-31 Partial Show. Set2  Track02. Looks Like Rain.flac
     6:07.360     211599404 B   cxx   --   ---xx   flac  0.6185  gd1980-10-31 Partial Show. Set2  Track03. Deal  Outro.flac
     3:28.773     120253484 B   cxx   --   ---xx   flac  0.6250  gd1980-10-31 Partial Show. Set3 Track01. Dont Ease Me In.flac
     5:45.227     198850604 B   cxx   --   ---xx   flac  0.6221  gd1980-10-31 Partial Show. Set3 Track02. Lost Sailor.flac
     6:12.600     214617644 B   cxx   --   ---xx   flac  0.6260  gd1980-10-31 Partial Show. Set3 Track03. Saint Of Circumstance.flac
    11:12.733     387494444 B   cxx   --   ---xx   flac  0.6222  gd1980-10-31 Partial Show. Set3 Track04. Franklins Tower Drums.flac
     9:45.013     336967724 B   cxx   --   ---xx   flac  0.6305  gd1980-10-31 Partial Show. Set3 Track05. Fire On The Mountain .flac
     6:03.253     209233964 B   cxx   --   ---xx   flac  0.6354  gd1980-10-31 Partial Show. Set3 Track06. Not Fade Away .flac
     9:04.640     313712684 B   cxx   --   ---xx   flac  0.6293  gd1980-10-31 Partial Show. Set3 Track07. Stella Blue.flac
     5:35.947     193505324 B   cxx   --   ---xx   flac  0.6339  gd1980-10-31 Partial Show. Set3 Track08. Goin Down The Road Feeling Bad.flac
     5:56.682     205449104 B   cxx   --   ---xx   flac  0.6347  gd1980-10-31 Partial Show. Set3 Track09. Good Lovin.flac
    80:03.962    2767082868 B                            0.6247  (12 files)




More information about the bittorrent mailing list