[bittorrent] Vince Herman And Friends Kruze Auto Auction RV Camping Lot Auburn, Indiana 7/8/2006 (Schoeps CCM4V'S FOB) (New And Only Source To Circulation)

Automated Mailer noreply-bt.e at etree.org
Wed Dec 28 06:38:51 UTC 2016


Band:           Leftover Salmon
Torrent Name:   Vince Herman And Friends Kruze Auto Auction RV Camping Lot Auburn, Indiana 7/8/2006 (Schoeps CCM4V'S FOB) (New And Only Source To Circulation)
Uploaded by:    zmanatl
DB Link:        
Details:        http://bt.etree.org/details.php?id=590529

Contact the seeder at http://db.etree.org/zmanatl

If the link to this show does not work, it was probably removed for
being non-trade-friendly.

Description / text file:
-------------------------
Vince Herman And Friends
Kruze Auto Auction
RV Camping Lot
Auburn, Indiana
7/8/2006 

Source: Schoeps CCM4V's>Lunatec V2>Benchmark AD2K>
Sound Devices 722 (24/44)
FOB/DFC/KFC/ZFC/AARP In The Circle, 4' High
DSP: Sound Devices 722>Sound Forge 10.0>CD Wave>flac(16)
ID3 Tagged In Foobar 2000
Recorded By: Z-Man
Seeded By: Z-Man

Disc I 

01 Used To Call Me Baby
02 Lumpy, Beanpole, And Dirt 
03 Get Together >
04 Love The One You're With
05 4 + 20
06 Ginseng Sullivan
07 Are You From Dixie >
08 Breakdown
09 You Angel You 
10 Ragtime Annie >
11 ?/Outro

Vince Hermann - Guitar And Vocals
Cliff Starbuck - BanJo And Vocals
? - Mandolin
? - Percussion
? - Harmonica

Show Notes: It was a Saturday, and I worked half a day in Toledo, Ohio. I had  a 2 hour
ride that I did in an hour and a half. My friend Tyler had organized this mini festival that
featured Vince Hermann as the Master of Ceremonies. I was there by 2:00 rolling tape on a grassy field 
on the grounds of the auto auction where Tyler worked. I was taping with attorney Chris from Indy. Tis was 
10 years ago and I am trying to piece things together. I was gonna leave at 1:00 as I had to drive back 
to Ohio, as I had to work Sunday morning. Chris talked me into staying for Lotus, who as we all know
always seem to nail down the 2:00 am slot at Festivals, Well they screwed around and did not start until
1:30 am. They ended I believe at 3:30. As i am cutting through the lot, I could hear my buddy Vince's voice. 
I followed the sound to an RV with lighted palm trees as a decoration. A small cirbe had formed by the door 
to the RV, so out came my mics and I set them in the middle of the circle. I think we ende at about 4:20! 
I rolled into Toledo around 6:15 and grabbed a short nap before work. It was quite a long day. Got to tape 
Vince, Railroad Earth, Ekoostik Hookah, Lotus, and a couple more. I am quote sure this has never been
heard uness you were one of about 20 people at the RV.   

vince2006-07-08d01t01.flac:a917d2de739bc0d7426003a46b208c0d
vince2006-07-08d01t02.flac:f69cfd0e0fefb2f869a902109f2e65cf
vince2006-07-08d01t03.flac:6124d4d8cfbd01b189f4edf89a0f589e
vince2006-07-08d01t04.flac:8e64ccfc64c9111f58f69bb389db75dc
vince2006-07-08d01t05.flac:eb47483514ee26f93668cb4e17bf006e
vince2006-07-08d01t06.flac:64bd4955094126665fd8781bc6dfe6f3
vince2006-07-08d01t07.flac:35eabc0486b8cfeb73de24fcdf145bf3
vince2006-07-08d01t08.flac:07cc2acf8c661f6aedd18a0c0118469c
vince2006-07-08d01t09.flac:6bc5a0c90cb669d833c84544cfe2052c
vince2006-07-08d01t10.flac:5f3d933b3300cde1feff250f830d9375
vince2006-07-08d01t11.flac:183ea146cd00b3d458be36ad82f9c976

 length     expanded size    cdr  WAVE problems  fmt   ratio  filename
     3:34.36       37834316 B   ---   --   ---xx   flac  0.4300  vince2006-07-08d01t01.flac
     4:31.02       47809148 B   ---   --   ---xx   flac  0.4420  vince2006-07-08d01t02.flac
     3:54.59       41416412 B   ---   --   ---xx   flac  0.4455  vince2006-07-08d01t03.flac
     1:20.10       14135564 B   ---   --   ---xx   flac  0.5188  vince2006-07-08d01t04.flac
     2:56.51       31166396 B   ---   --   ---xx   flac  0.3868  vince2006-07-08d01t05.flac
     3:03.25       32340044 B   ---   --   ---xx   flac  0.4460  vince2006-07-08d01t06.flac
     2:40.19       28268732 B   ---   --   ---xx   flac  0.4284  vince2006-07-08d01t07.flac
     3:40.58       38944460 B   ---   --   ---xx   flac  0.4671  vince2006-07-08d01t08.flac
     3:38.71       38622236 B   ---   --   ---xx   flac  0.4285  vince2006-07-08d01t09.flac
     2:19.39       24611372 B   ---   --   ---xx   flac  0.4402  vince2006-07-08d01t10.flac
     1:20.10       14135564 B   ---   --   ---xx   flac  0.4167  vince2006-07-08d01t11.flac
    33:00.05      349284244 B                            0.4387  (11 files)






   







More information about the bittorrent mailing list