[bittorrent] gd1969-02-04partial.aiwa.komar.miller.sirmick.137440.sbeok.flac24 e

Automated Mailer noreply-bt.e at etree.org
Wed Dec 28 06:28:00 UTC 2016


Band:           Grateful Dead
Torrent Name:   gd1969-02-04partial.aiwa.komar.miller.sirmick.137440.sbeok.flac24 e
Uploaded by:    grateful darkstar
DB Link:        
Details:        http://bt.etree.org/details.php?id=590528

Contact the seeder at http://db.etree.org/grateful darkstar

If the link to this show does not work, it was probably removed for
being non-trade-friendly.

Description / text file:
-------------------------
Grateful Dead
The Music Box
Omaha, NE
02/04/1969

Partial show.



Source: Audience recording > Aiwa hand-held microphone -> Master Reel (Aiwa 5" reel-to-reel) -> Cassette (TDK D-90)
        recorded by Leon Komar 
Tranafer: Nakamichi CR-7A > Tascam DA-3000 (DSF 1-bit/5.8 MHz) > KORG Audiogate 4 > flac 24/96
          transfered by Charlie Miller
Lineage: wav 24/96 > Adobe Audition 3.0.1 > iZotope RX4 Advanced > iZotope Ozone 5 Advanced >
         CD Wave > TLH > Flac24 



01   //Morning Dew
02   //Dark//Star >
03   Saint Stephen > 
04   The Eleven > 
05   Death Don't Have No Mercy/



Comments:

- There were several reasons for wanting to put this out.  It is the first audience recording to emerge for
  this date. "Dark Star" although having a cut of about 2:26 (starting at 2:03) also contains approximately
  18 seconds that are missing from the soundboard that circulates (this is from around 7:39 in the soundboard.
  It also includes the last 2:28 of "Death Don't Have No Mercy."
- The tape also contained a couple of 2 minute segments of "Good Morning Little Schoolgirl" but I decided to leave
  those out.

Notes:

- This recording had severe problem with the speed. I've never heard anything quite so bad in this respect before.
  It has been necessary to make adjustments every 10 to 15 seconds and it still has some speed issues but they
  are unlikely to improve unless I had the time to spend many more hours on it. If anyone wants to continue what
  I've started please feel free to do so.
- A number of artifacts have been removed.
  There are signs of tape deterioration.
 

Thanks to Leon and Charlie


edited and mastered
SIRMick
December 2016



shntool output:

    length     expanded size    cdr  WAVE problems  fmt   ratio  filename
     8:56.200     308851244 B   cxx   --   ---xx   flac  0.6895  gd1969-02-04t01.flac
    10:56.987     378424364 B   cxx   --   ---xx   flac  0.6845  gd1969-02-04t02.flac
     6:20.400     219110444 B   cxx   --   ---xx   flac  0.6871  gd1969-02-04t03.flac
    10:31.160     363548204 B   cxx   --   ---xx   flac  0.6885  gd1969-02-04t04.flac
     9:39.293     333673004 B   cxx   --   ---xx   flac  0.6780  gd1969-02-04t05.flac
    46:24.040    1603607260 B                            0.6854  (5 files)





More information about the bittorrent mailing list