[bittorrent] Katie Martin Darwin's Burgers And Blues Marietta, Georgia 12/27/2016 (Schoeps CCM4V'S FOB)

Automated Mailer noreply-bt.e at etree.org
Wed Dec 28 05:11:32 UTC 2016


Band:           Other
Torrent Name:   Katie Martin Darwin's Burgers And Blues Marietta, Georgia 12/27/2016 (Schoeps CCM4V'S FOB)
Uploaded by:    zmanatl
DB Link:        
Details:        http://bt.etree.org/details.php?id=590527

Contact the seeder at http://db.etree.org/zmanatl

If the link to this show does not work, it was probably removed for
being non-trade-friendly.

Description / text file:
-------------------------
Katie Martin And Marie Robertson
Darwin's Burgers And Blues
Marietta, Georgia
12/27/2016 

Source: Schoeps CCM4V's>Lunatec V2>Benchmark AD2K>
Sound Devices 722 (24/44)
FOB/DFC/KFC/ZFC/AARP Stage Lip, 6 1/2' High
DSP: Sound Devices 722>Sound Forge 10.0>CD Wave>flac(16)
ID3 Tagged In Foobar 2000
Recorded By: Z-Man
Seeded By: Z-Man

Disc I 

01 Sound Check 1
02 Sound Check 2
03 Sound Check 3
04 *Try But You Gotta Know
05 #?
06 Marie Banter
07 *I Need A Little Bit More Of You, Yes I Do
08 ?
09 Green Is The Color
10 When The Water Flows
11 Winners
12 Katie Banter
13 ?

* Marie Solo
# Katie Solo

katie2016-12-27d01t01.flac:2fc25611fb418673a6335110c0490f26
katie2016-12-27d01t02.flac:06c9e3d8411a56662d6e859133d48ac6
katie2016-12-27d01t03.flac:581be814f14113d066145fa7b0f5d058
katie2016-12-27d01t04.flac:f19266f0af5e6bd3772300e675af1d29
katie2016-12-27d01t05.flac:881321143aa95643926500e152531161
katie2016-12-27d01t06.flac:890a18502c0bf9f01d1a55c95f920e93
katie2016-12-27d01t07.flac:4b1cb88b186562e5fb069472dc9d395f
katie2016-12-27d01t08.flac:7d6b770a16650f45a9307c6c863c1c41
katie2016-12-27d01t09.flac:77025753d83d1e45dd43a87265f42747
katie2016-12-27d01t10.flac:3904aa0dfed793d1bba1622676f51c33
katie2016-12-27d01t11.flac:68eb899ea25d3bd460858341e4617f19
katie2016-12-27d01t12.flac:6401c20982bc2e5c9cdc150a2b29d32c
katie2016-12-27d01t13.flac:94b6c8379699a679ce474e635cf3fec4

length     expanded size    cdr  WAVE problems  fmt   ratio  filename
     6:19.52       66977948 B   ---   --   ---xx   flac  0.2981  katie2016-12-27d01t01.flac
     2:54.59       30832412 B   ---   --   ---xx   flac  0.3340  katie2016-12-27d01t02.flac
     3:28.45       36797084 B   ---   --   ---xx   flac  0.4524  katie2016-12-27d01t03.flac
     3:59.18       42201980 B   ---   --   ---xx   flac  0.3693  katie2016-12-27d01t04.flac
     8:06.13       85761020 B   ---   --   ---xx   flac  0.4334  katie2016-12-27d01t05.flac
     1:19.73       14107340 B   ---   --   ---xx   flac  0.3190  katie2016-12-27d01t06.flac
     3:43.14       39370172 B   ---   --   ---xx   flac  0.3728  katie2016-12-27d01t07.flac
     5:28.66       58014476 B   ---   --   ---xx   flac  0.4344  katie2016-12-27d01t08.flac
     2:42.60       28717964 B   ---   --   ---xx   flac  0.3948  katie2016-12-27d01t09.flac
     7:58.42       84418028 B   ---   --   ---xx   flac  0.4316  katie2016-12-27d01t10.flac
     4:21.41       46136876 B   ---   --   ---xx   flac  0.3824  katie2016-12-27d01t11.flac
     1:31.60       16193564 B   ---   --   ---xx   flac  0.3293  katie2016-12-27d01t12.flac
     4:42.58       49881260 B   ---   --   ---xx   flac  0.4422  katie2016-12-27d01t13.flac
    56:38.01      599410124 B                            0.3951  (13 files)




















More information about the bittorrent mailing list