[bittorrent] gd1991-04-01.137439.sbd.miller.flac24

Automated Mailer noreply-bt.e at etree.org
Tue Dec 27 23:51:06 UTC 2016


Band:           Grateful Dead
Torrent Name:   gd1991-04-01.137439.sbd.miller.flac24
Uploaded by:    greendude
DB Link:        
Details:        http://bt.etree.org/details.php?id=590526

Contact the seeder at http://db.etree.org/greendude

If the link to this show does not work, it was probably removed for
being non-trade-friendly.

Description / text file:
-------------------------
Grateful Dead - April 1, 1991
Greensboro Coliseum - Greensboro, NC

Recording Info:
SBD > Cassette Master (TDK (SA-X100)

Transfer Info:
Cassette Master (Nakamichi DR-1) > Tascam DA-3000 (DSF 1-bit/5.8 MHz) >
KORG AudioGate 4 > Samplitude Pro X3 Suite > FLAC/24
(1 Disc FLAC)

All Transfers and Mastering By Charlie Miller
charliemiller87 at earthlink.net
December 26, 2016

Set 1:
01 - Tuning
02 - Jack Straw >
03 - Peggy-O
04 - It's All Over Now
05 - Candyman
06 - Just Like Tom Thumb's Blues
07 - Picasso Moon
08 - Bird Song

Set 2:
09 - China Cat Sunflower >
10 - I Know You Rider
11 - Looks Like Rain
12 - Dark Star >
13 - Drums >
14 - Space >
15 - Dark Star >
16 - Playin' In The Band >
17 - Black Peter >
18 - Turn On Your Lovelight

Encore:
19 - Encore Break
20 - It's All Over Now, Baby Blue


SHNTOOL OUTPUT:
    length     expanded size    cdr  WAVE problems  fmt   ratio  filename
     1:17.184      44458040 B   cxx   --   ---xx   flac  0.6203  01 Tuning.flac
     5:25.675     187589000 B   cxx   --   ---xx   flac  0.6728  02 Jack Straw.flac
     7:13.454     249669782 B   cxx   --   ---xx   flac  0.6625  03 Peggy-O.flac
     8:43.570     301576238 B   cxx   --   ---xx   flac  0.6667  04 It's All Over Now.flac
     8:14.893     285058592 B   cxx   --   ---xx   flac  0.6521  05 Candyman.flac
     6:13.835     215328860 B   cxx   --   ---xx   flac  0.6546  06 Just Like Tom Thumb's Blues.flac
     6:44.714     233115278 B   cxx   --   ---xx   flac  0.6867  07 Picasso Moon.flac
    16:27.483     568790384 B   cxx   --   ---xx   flac  0.6595  08 Bird Song.flac
     6:31.107     225277550 B   cxx   --   ---xx   flac  0.6599  09 China Cat Sunflower.flac
     6:44.999     233279678 B   cxx   --   ---xx   flac  0.6728  10 I Know You Rider.flac
    10:22.357     358477412 B   cxx   --   ---xx   flac  0.6493  11 Looks Like Rain.flac
    23:04.334     797376446 B   cxx   --   ---xx   flac  0.6550  12 Dark Star.flac
     7:42.601     266458328 B   cxx   --   ---xx   flac  0.6014  13 Drums.flac
     8:58.878     310394042 B   cxx   --   ---xx   flac  0.5826  14 Space.flac
     3:13.806     111632390 B   cxx   --   ---xx   flac  0.6435  15 Dark Star.flac
     3:32.787     122565356 B   cxx   --   ---xx   flac  0.6597  16 Playing In The Band Reprise.flac
     9:32.698     329873930 B   cxx   --   ---xx   flac  0.6538  17 Black Peter.flac
     5:46.678     199686614 B   cxx   --   ---xx   flac  0.6699  18 Turn On Your Lovelight.flac
     1:36.665      55678856 B   cxx   --   ---xx   flac  0.6105  19 Encore Break.flac
     6:52.703     237716942 B   cxx   --   ---xx   flac  0.6658  20 It's All Over Now, Baby Blue.flac
   154:20.422    5334003718 B                            0.6521  (20 files)




More information about the bittorrent mailing list