[bittorrent] George Price Darwin's Burgers And Blues Marietta, Georgia 12/26/2016 (Schoeps CCM4V'S FOB)

Automated Mailer noreply-bt.e at etree.org
Tue Dec 27 14:53:34 UTC 2016


Band:           Other
Torrent Name:   George Price Darwin's Burgers And Blues Marietta, Georgia 12/26/2016 (Schoeps CCM4V'S FOB)
Uploaded by:    zmanatl
DB Link:        
Details:        http://bt.etree.org/details.php?id=590522

Contact the seeder at http://db.etree.org/zmanatl

If the link to this show does not work, it was probably removed for
being non-trade-friendly.

Description / text file:
-------------------------
George Price Band
Darwin's Burgers And Blues
Marietta, Georgia
12/26/2016 

Source: Schoeps CCM4V's>Lunatec V2>Benchmark AD2K>
Sound Devices 722 (24/44)
FOB/DFC/KFC/ZFC/AARP Stage Lip, 6 1/2' High
DSP: Sound Devices 722>Sound Forge 10.0>CD Wave>flac(16)
ID3 Tagged In Foobar 2000
Recorded By: Z-Man
Seeded By: Z-Man

Disc I 1st Set

01 Greetin/Banter
02 Standin' On Shaky Ground
03 Ain't No Midnight Train
04 Darwins Deluxe
05 Cosmic Debris
06 Ain't No Sunshine
07 Break Up Song
08 ?
09 Keep Your Hands To Yourself
10 Alright Now
11 Ain't No Love In The Heart Of The City 
12 ?
13 Black Magic Woman
14 Crossroads

Disc II 2nd Set  

01 Banter
02 Too Much Stuff > 
03 ? >
04 Drum Solo >
05 ?
06 Sharp Dressed Man
07 Things I Should Have Said
08 The Chanaco
09 Stratus
10 A Quitter Never Wins
11 Secret Agent Man >
12 The Munsters Theme >
13 Pipeline >
14 Secret Agent Man

Disc III 2nd Set Con't  

01 Banter
02 Business As Usual
03 The One I Love
04 Goin' Down >
05 Money For Nothin' >
06 Smoke On The Water >
07 Money For Nothin' 
08 George Pays Tribute To Darwins
09 *Amazing Grace 
10 Thanks/Band Introductions/Let's Play One More
11 Mistreated

* Dedicated To Ernie Lodato (Past Owner Of Darwins)

Darwins Will Be Closing It's Doors After Their Last Show Here On 12/31/2016. I 
Have Taped And Streamed Probably A Couple Hundred Shows At Darwins. We will miss This 
Old Rundown Blues Palace. The Good News Is That They Will Be Re-Opening In The Recently
Closed Down Steve's Live Music In Sandy Springs!

George Price - Guitar And Vocals
Dana McCarthy - Bass And Vocals
Charlie Korch - Drums And Vocals

george2016-12-26d01t01.flac:3ace5e558042672576d3d63c31ead087
george2016-12-26d01t02.flac:1b76f63fe4d2c2fac4df8f5a8b804350
george2016-12-26d01t03.flac:f19e6034d1f1e4b819eedcf3bc00d0c1
george2016-12-26d01t04.flac:fd74d6e153c2c5f4abedbad7aa454ea6
george2016-12-26d01t05.flac:fcbb17b18a42154fcd46a5f5818e6012
george2016-12-26d01t06.flac:2b9f8d22cf8ef264a8ddd37ea88196e7
george2016-12-26d01t07.flac:49dc76c9c0e211641457fe1c70ef38c7
george2016-12-26d01t08.flac:622b6ddfd7bc412a6b462d95fec620ef
george2016-12-26d01t09.flac:16301f88d58e774c19590dbbf9067cbc
george2016-12-26d01t10.flac:18ee77ac1ed2ceee353e29482d984572
george2016-12-26d01t11.flac:23f4c699d0c56f3415c712b56575aca8
george2016-12-26d01t12.flac:f26eabb1ffddb5ca0374f189d818df44
george2016-12-26d01t13.flac:a1e58d171ae29ddcc5089a43e484738c
george2016-12-26d01t14.flac:5c1b7582aa73ff9031a9f11460ead5a7
george2016-12-26d0212.flac:a2220b8fa2e2cfae90a4a31eaa54161b
george2016-12-26d02t01.flac:969252b26e35c5b57440c5a49bcad279
george2016-12-26d02t02.flac:ab2abba7964e221a07db7e940ab7304d
george2016-12-26d02t03.flac:f410c887abc8fbf81f73b40281195058
george2016-12-26d02t04.flac:d62c9650a4e4b42a7fd6a2846083ac4d
george2016-12-26d02t05.flac:945c45c9b66344a94c1447ba1cc65118
george2016-12-26d02t06.flac:7bcf2031ceb55663250b2b1df9d7f08a
george2016-12-26d02t07.flac:e6f837872067d150d271faf2f2e150e9
george2016-12-26d02t08.flac:ecb6a125e4d1419b5eb90e54f0aa1fbe
george2016-12-26d02t09.flac:3d461fa705be3004090f9f2f7c7f986a
george2016-12-26d02t10.flac:00f0c336fb0078c023448f40a413d48d
george2016-12-26d02t11.flac:ddc311e98e8a7b3dc53de42605fec5b1
george2016-12-26d02t13.flac:6a6be53be069748c782b01ee76e9f1f8
george2016-12-26d02t14.flac:be8eb4f549f57ccf83ef2a6a518ab7c3
george2016-12-26d03t01.flac:0330a23622aad2c81e46922e0dae106d
george2016-12-26d03t02.flac:bd56872c86fe22dd1bec88de6dea7f31
george2016-12-26d03t03.flac:2d64204ce3989e60bddd216c24b43aee
george2016-12-26d03t04.flac:76ab501c38cc13e06f5832ab5966083b
george2016-12-26d03t05.flac:a3dcade8b93d3f1cdaa66479e96b65b6
george2016-12-26d03t06.flac:c62728a0c5222c6eecedbe539d7bfb51
george2016-12-26d03t07.flac:033b619086bd687fc10df40049762753
george2016-12-26d03t08.flac:3f4569e2772afdb468fb207239d5891c
george2016-12-26d03t09.flac:474d93d288506ae299cbcc1fb73e423e
george2016-12-26d03t10.flac:a98a48ce6ab6eccb138755d608857a14
george2016-12-26d03t11.flac:e36d1d125655035f09f6b9ffd14c62e7

 length     expanded size    cdr  WAVE problems  fmt   ratio  filename
     1:12.72       12870188 B   ---   --   ---xx   flac  0.2992  george2016-12-26d01t01.flac
     6:23.61       67704716 B   ---   --   ---xx   flac  0.4998  george2016-12-26d01t02.flac
     7:57.25       84201644 B   ---   --   ---xx   flac  0.5381  george2016-12-26d01t03.flac
     4:52.28       51574700 B   ---   --   ---xx   flac  0.4876  george2016-12-26d01t04.flac
     5:28.33       57936860 B   ---   --   ---xx   flac  0.5028  george2016-12-26d01t05.flac
     4:53.04       51694652 B   ---   --   ---xx   flac  0.3737  george2016-12-26d01t06.flac
     5:03.67       53606828 B   ---   --   ---xx   flac  0.5660  george2016-12-26d01t07.flac
     4:43.39       50012972 B   ---   --   ---xx   flac  0.5099  george2016-12-26d01t08.flac
     3:59.04       42169052 B   ---   --   ---xx   flac  0.5129  george2016-12-26d01t09.flac
     6:26.24       68146892 B   ---   --   ---xx   flac  0.5360  george2016-12-26d01t10.flac
     6:11.35       65526764 B   ---   --   ---xx   flac  0.5056  george2016-12-26d01t11.flac
     5:47.44       61314332 B   ---   --   ---xx   flac  0.4286  george2016-12-26d01t12.flac
     6:51.63       72648620 B   ---   --   ---xx   flac  0.5165  george2016-12-26d01t13.flac
     3:19.58       35240060 B   ---   --   ---xx   flac  0.5324  george2016-12-26d01t14.flac
     0:27.15        4798124 B   ---   --   ---xx   flac  0.5534  george2016-12-26d0212.flac
     1:16.55       13535804 B   ---   --   ---xx   flac  0.2768  george2016-12-26d02t01.flac
     5:22.51       56920796 B   ---   --   ---xx   flac  0.5538  george2016-12-26d02t02.flac
     6:13.34       65877212 B   ---   --   ---xx   flac  0.5456  george2016-12-26d02t03.flac
     0:55.45        9807884 B   ---   --   ---xx   flac  0.5302  george2016-12-26d02t04.flac
     1:18.73       13930940 B   ---   --   ---xx   flac  0.5646  george2016-12-26d02t05.flac
     4:49.57       51113708 B   ---   --   ---xx   flac  0.5072  george2016-12-26d02t06.flac
     4:37.26       48923996 B   ---   --   ---xx   flac  0.4028  george2016-12-26d02t07.flac
     4:37.48       48975740 B   ---   --   ---xx   flac  0.4381  george2016-12-26d02t08.flac
     5:32.25       58623644 B   ---   --   ---xx   flac  0.5561  george2016-12-26d02t09.flac
     5:36.29       59338652 B   ---   --   ---xx   flac  0.4520  george2016-12-26d02t10.flac
     3:31.02       37225148 B   ---   --   ---xx   flac  0.5419  george2016-12-26d02t11.flac
     0:36.51        6470396 B   ---   --   ---xx   flac  0.5675  george2016-12-26d02t13.flac
     1:25.21       15043436 B   ---   --   ---xx   flac  0.5073  george2016-12-26d02t14.flac
     1:50.61       19547516 B   ---   --   ---xx   flac  0.3169  george2016-12-26d03t01.flac
     5:35.61       59237516 B   ---   --   ---xx   flac  0.4997  george2016-12-26d03t02.flac
     3:19.26       35164796 B   ---   --   ---xx   flac  0.5519  george2016-12-26d03t03.flac
     6:11.38       65533820 B   ---   --   ---xx   flac  0.5603  george2016-12-26d03t04.flac
     2:53.01       30519596 B   ---   --   ---xx   flac  0.5609  george2016-12-26d03t05.flac
     1:54.05       20121404 B   ---   --   ---xx   flac  0.5916  george2016-12-26d03t06.flac
     2:16.48       24103340 B   ---   --   ---xx   flac  0.5582  george2016-12-26d03t07.flac
     1:25.06       15008156 B   ---   --   ---xx   flac  0.2725  george2016-12-26d03t08.flac
     7:18.19       77307932 B   ---   --   ---xx   flac  0.4433  george2016-12-26d03t09.flac
     1:14.04       13063052 B   ---   --   ---xx   flac  0.2616  george2016-12-26d03t10.flac
     9:20.03       98791100 B   ---   --   ---xx   flac  0.5362  george2016-12-26d03t11.flac
   162:51.11     1723631988 B                            0.4992  (39 files)























More information about the bittorrent mailing list