[bittorrent] gd1987-09-23.137412.fixed.sbd.miller.flac24

Automated Mailer noreply-bt.e at etree.org
Mon Dec 26 22:33:12 UTC 2016


Band:           Grateful Dead
Torrent Name:   gd1987-09-23.137412.fixed.sbd.miller.flac24
Uploaded by:    greendude
DB Link:        
Details:        http://bt.etree.org/details.php?id=590515

Contact the seeder at http://db.etree.org/greendude

If the link to this show does not work, it was probably removed for
being non-trade-friendly.

Description / text file:
-------------------------
Grateful Dead - September 23, 1987
The Spectrum - Philadelphia, PA

Recording Info:
SBD > Cassette Master (TDK SA-X90)

Transfer Info:
Cassette Master (Nakamichi DR-1) > Tascam DA-3000 (DSF 1-bit/5.8 MHz) >
KORG AudioGate 4 > Adobe Audition CC 2015 > Samplitude Pro X3 Suite > FLAC/24
(1 Disc FLAC)

All Transfers and Mastering By Charlie Miller
charliemiller87 at earthlink.net
December 25, 2016

Notes:
-- This source has a fixed Walkin' Blues
-- Two sets of masters were used to make show complete
-- Thanks to Joe B. Jones for his help with the pitch correction

Set 1:
01 - Tuning
02 - Feel Like A Stranger >
03 - Franklin's Tower
04 - Walkin' Blues
05 - Friend Of The Devil
06 - Tons Of Steel >
07 - Desolation Row
08 - Big Railroad Blues >
09 - The Music Never Stopped

Set 2:
10 - Bertha >
11 - Cumberland Blues
12 - Playing In The Band >
13 - Uncle John's Band >
14 - Playing In The Band Jam >
15 - Drums >
16 - Space >
17 - I Need A Miracle >
18 - Dear Mr. Fantasy >
19 - Around And Around >
20 - Good Lovin' >
21 - La Bamba >
22 - Good Lovin'

Encore:
23 - Encore Break
24 - U.S. Blues


SHNTOOL OUTPUT:
    length     expanded size    cdr  WAVE problems  fmt   ratio  filename
     2:26.378      84313508 B   cxx   --   ---xx   flac  0.6334  01 Tuning.flac
     7:12.163     248926202 B   cxx   --   ---xx   flac  0.6633  02 Feel Like A Stranger.flac
     9:44.702     336788480 B   cxx   --   ---xx   flac  0.6584  03 Franklin's Tower.flac
     6:52.092     237365132 B   cxx   --   ---xx   flac  0.6507  04 Walkin' Blues.flac
    10:08.876     350712386 B   cxx   --   ---xx   flac  0.6576  05 Friend Of The Devil.flac
     5:07.569     177159824 B   cxx   --   ---xx   flac  0.6740  06 Tons Of Steel.flac
    11:04.042     382488020 B   cxx   --   ---xx   flac  0.6585  07 Desolation Row.flac
     5:16.711     182425658 B   cxx   --   ---xx   flac  0.6734  08 Big Railroad Blues.flac
     8:18.474     287120906 B   cxx   --   ---xx   flac  0.6615  09 The Music Never Stopped.flac
     7:34.431     261752066 B   cxx   --   ---xx   flac  0.6614  10 Bertha.flac
     5:28.782     189378344 B   cxx   --   ---xx   flac  0.6675  11 Cumberland Blues.flac
     7:34.514     261800054 B   cxx   --   ---xx   flac  0.6525  12 Playing In The Band.flac
     7:14.360     250191404 B   cxx   --   ---xx   flac  0.6576  13 Uncle John's Band.flac
     2:08.239      73865480 B   cxx   --   ---xx   flac  0.6508  14 Playing In The Band Jam.flac
    10:13.118     353156054 B   cxx   --   ---xx   flac  0.6299  15 Drums.flac
     9:19.614     322337480 B   cxx   --   ---xx   flac  0.6205  16 Space.flac
     3:53.977     134771030 B   cxx   --   ---xx   flac  0.6615  17 I Need A Miracle.flac
     6:10.429     213366938 B   cxx   --   ---xx   flac  0.6614  18 Dear Mr Fantasy.flac
     3:57.176     136613618 B   cxx   --   ---xx   flac  0.6592  19 Around And Around.flac
     5:05.304     175855196 B   cxx   --   ---xx   flac  0.6618  20 Good Lovin'.flac
     0:55.367      31891664 B   cxx   --   ---xx   flac  0.6613  21 La Bamba.flac
     2:52.027      99087554 B   cxx   --   ---xx   flac  0.6645  22 Good Lovin'.flac
     2:22.609      82142900 B   cxx   --   ---xx   flac  0.6442  23 Encore Break.flac
     6:25.297     221931338 B   cxx   --   ---xx   flac  0.6717  24 US Blues.flac
   147:26.250    5095441236 B                            0.6556  (24 files)



More information about the bittorrent mailing list