[bittorrent] jgb1981-02-15.aud.137422.flac1644

Automated Mailer noreply-bt.e at etree.org
Mon Dec 26 21:32:13 UTC 2016


Band:           Garcia
Torrent Name:   jgb1981-02-15.aud.137422.flac1644
Uploaded by:    nfagdtrfb
DB Link:        
Details:        http://bt.etree.org/details.php?id=590514

Contact the seeder at http://db.etree.org/nfagdtrfb

If the link to this show does not work, it was probably removed for
being non-trade-friendly.

Description / text file:
-------------------------
JERRY GARCIA BAND
Esby Gymnasium
Glassboro State College
Glassboro NJ
02-15-1981

s1t01 How Sweet It Is
s1t02 Catfish John
s1t03 Mississippi Moon
s1t04 I'll Take a Melody
s1t05 Tangled Up in Blue

s2t01 The Harder They Come
s2t02 Mission in the Rain
s2t03 Tore Up Over You
s2t04 Dear Prudence
s2t05 Midnight Moonlight

Source: AUD (1st or 2nd gen) from the Craig L. tape collection.

Transfer: Maxell XLI (normal) > Nakamichi CR-5A > Edirol FA-66 > 
Wavelab 2448 > R8Brain SRC > Wavelab (adding 16-bit patches) > 
CD-Wave > TLH > FLAC 1644 tagged. Transferred by Andrew F. 12/2016

Note: Same taper as ID-136789. This source does not have the speed 
problems and digital processing issues of ID-9020. Re-mixed patches 
from ID-9020; Melody 12:05 > 12:12, TUIB 0:04 > 0:14, crowd after 
Tore Up 8:29 > Prudence 0:18, and Midnight Moonlight 8:03 > 8:09. 
Thanks Jon Pasternak & Charlie McGuth for organizing this project!

    length     expanded size    cdr  WAVE problems  fmt   ratio  filename
     7:57.05       84154604 B   ---   --   ---xx   flac  0.5830  jgb1981-02-15s1t01.flac
    10:34.31      111910556 B   ---   --   ---xx   flac  0.6100  jgb1981-02-15s1t02.flac
    11:44.32      124260908 B   ---   --   ---xx   flac  0.5516  jgb1981-02-15s1t03.flac
    13:02.51      138064796 B   ---   --   ---xx   flac  0.5841  jgb1981-02-15s1t04.flac
     9:57.14      105343772 B   ---   --   ---xx   flac  0.6037  jgb1981-02-15s1t05.flac
    14:41.06      155422556 B   ---   --   ---xx   flac  0.5800  jgb1981-02-15s2t01.flac
     9:34.02      101258348 B   ---   --   ---xx   flac  0.5806  jgb1981-02-15s2t02.flac
     8:32.08       90335660 B   ---   --   ---xx   flac  0.5936  jgb1981-02-15s2t03.flac
    12:11.00      128948444 B   ---   --   ---xx   flac  0.5988  jgb1981-02-15s2t04.flac
     8:08.41       86179676 B   ---   --   ---xx   flac  0.6138  jgb1981-02-15s2t05.flac
   106:22.40     1125879320 B                            0.5887  (10 files)

No errors occured.




More information about the bittorrent mailing list