[bittorrent] Kristin Tinsley Solo Acoustic Nik's Place Marietta, Georgia 12/24/2016 (Schoeps CCM4V'S FOB)

Automated Mailer noreply-bt.e at etree.org
Mon Dec 26 03:36:15 UTC 2016


Band:           Other
Torrent Name:   Kristin Tinsley Solo Acoustic Nik's Place Marietta, Georgia 12/24/2016 (Schoeps CCM4V'S FOB)
Uploaded by:    zmanatl
DB Link:        
Details:        http://bt.etree.org/details.php?id=590508

Contact the seeder at http://db.etree.org/zmanatl

If the link to this show does not work, it was probably removed for
being non-trade-friendly.

Description / text file:
-------------------------
Kristin Tinsley Solo Acoustic
Nik's Place
Marietta, Georgia
12/25/2016 

Source: Schoeps CCM4V's>Lunatec V2>Benchmark AD2K>
Sound Devices 722 (24/44)
FOB/DFC/KFC/ZFC/AARP Stage Lip, 6' High
DSP: Sound Devices 722>Sound Forge 10.0>CD Wave>flac(16)
ID3 Tagged In Foobar 2000
Recorded By: Z-Man
Seeded By: Z-Man

Disc I 

01 *Do You Feel Like A Man
02 ?
03 Something To Talk About
04 Come Home For Christmas
05 Happy Birthday Benita
06 Shinedown
07 #Superstitious
08 Stand By Me
09 Banter On Freebird 
10 Free Bird 
11 Purple Rain 
12 Landslide
13 To Be With You

* I Walked In After She Started Playing
# With Landon Jordan On Acoustic Guitar

kristin2016-12-25d01t01.flac:fb400d122020c7c760a250e44b0bdd46
kristin2016-12-25d01t02.flac:579635d9cffae21916fbfc9ce07ffc82
kristin2016-12-25d01t03.flac:30bec852c9e499bd45e8612d41563749
kristin2016-12-25d01t04.flac:406a70a457a32f79dc9fb239c0296198
kristin2016-12-25d01t05.flac:074b14c7d1810d0488d3f54fd9956512
kristin2016-12-25d01t06.flac:bcc3392d3ee4e054d9c7122bf08053bc
kristin2016-12-25d01t07.flac:efc4d39f6108a0f851dc9301a84fe237
kristin2016-12-25d01t08.flac:96df617ecb19fd903d43e4b0c823cd90
kristin2016-12-25d01t09.flac:1b9198670820932be177612919e71016
kristin2016-12-25d01t10.flac:036a5f2a062c8adde3f3666223b77802
kristin2016-12-25d01t11.flac:61b5233e8bee93cce5e0378f5cad6898
kristin2016-12-25d01t12.flac:deb6a1ff1c493084b58b77933cb1e3fd
kristin2016-12-25d01t13.flac:ae51a251c008e8b663b6248ea741fe6d

length     expanded size    cdr  WAVE problems  fmt   ratio  filename
     2:20.19       24740732 B   ---   --   ---xx   flac  0.4252  kristin2016-12-25d01t01.flac
     4:32.66       48136076 B   ---   --   ---xx   flac  0.4395  kristin2016-12-25d01t02.flac
     3:21.13       35487020 B   ---   --   ---xx   flac  0.4360  kristin2016-12-25d01t03.flac
     5:09.01       54509996 B   ---   --   ---xx   flac  0.4253  kristin2016-12-25d01t04.flac
     1:11.35       12606764 B   ---   --   ---xx   flac  0.4349  kristin2016-12-25d01t05.flac
     5:42.47       60439388 B   ---   --   ---xx   flac  0.4238  kristin2016-12-25d01t06.flac
     3:55.44       41557532 B   ---   --   ---xx   flac  0.4497  kristin2016-12-25d01t07.flac
     2:35.02       27346748 B   ---   --   ---xx   flac  0.4282  kristin2016-12-25d01t08.flac
     1:16.23       13460540 B   ---   --   ---xx   flac  0.4207  kristin2016-12-25d01t09.flac
     4:18.46       45619436 B   ---   --   ---xx   flac  0.4859  kristin2016-12-25d01t10.flac
     5:02.43       53373980 B   ---   --   ---xx   flac  0.4480  kristin2016-12-25d01t11.flac
     5:02.26       53333996 B   ---   --   ---xx   flac  0.3726  kristin2016-12-25d01t12.flac
     3:35.45       38031884 B   ---   --   ---xx   flac  0.5157  kristin2016-12-25d01t13.flac
    48:03.35      508644092 B                            0.4385  (13 files)






More information about the bittorrent mailing list