[bittorrent] gd1987-09-20.137419.sbd.miller.flac16

Automated Mailer noreply-bt.e at etree.org
Mon Dec 26 02:03:24 UTC 2016


Band:           Grateful Dead
Torrent Name:   gd1987-09-20.137419.sbd.miller.flac16
Uploaded by:    norm
DB Link:        
Details:        http://bt.etree.org/details.php?id=590506

Contact the seeder at http://db.etree.org/norm

If the link to this show does not work, it was probably removed for
being non-trade-friendly.

Description / text file:
-------------------------
Grateful Dead - September 20, 1987
Madison Square Garden - New York, NY

Recording Info:
SBD > Cassette Master (TDK SA-X90)

Transfer Info:
Cassette Master (Nakamichi DR-1) > Tascam DA-3000 (DSF 1-bit/5.8 MHz) >
KORG AudioGate 4 > Adobe Audition CC 2015 > Samplitude Pro X3 Suite > FLAC/24
(1 Disc FLAC)

All Transfers and Mastering By Charlie Miller
charliemiller87 at earthlink.net
December 23, 2016

Notes:
-- Two sets of masters were used to make show complete
-- Thanks to Joe B. Jones for his help with the pitch correction

**This fileset is 16bits @ 44.1**
137407 24bits > 16bits with r8brain

Set 1:
01 - Tuning
02 - Funiculi Funicula
03 - Addams Family Tuning
04 - Jack Straw >
05 - West L.A. Fadeaway
06 - My Brother Esau
07 - Far From Me
08 - It Must Have Been The Roses
09 - Desolation Row >
10 - Might As Well >
11 - Promised Land

Set 2:
12 - Tuning
13 - Hell In A Bucket >
14 - Iko Iko >
15 - Looks Like Rain >
16 - He's Gone >
17 - Drums >
18 - Space >
19 - The Other One >
20 - Wharf Rat >
21 - Throwing Stones >
22 - Not Fade Away

Encore:
23 - Encore Break
24 - Touch Of Grey >
25 - Brokedown Palace


SHNTOOL OUTPUT:
    length     expanded size    cdr  WAVE problems  fmt   ratio  filename
     2:07.09       22424012 B   ---   --   ---xx   flac  0.5062  01 Tuning.flac
     3:19.36       35188316 B   ---   --   ---xx   flac  0.5177  02 Funiculi Funicula.flac
     0:36.27        6413948 B   ---   --   ---xx   flac  0.5217  03 Addams Family Tuning.flac
     6:31.15       69007724 B   ---   --   ---xx   flac  0.6030  04 Jack Straw.flac
     9:08.20       96714284 B   ---   --   ---xx   flac  0.5858  05 West LA Fadeaway.flac
     5:22.69       56963132 B   ---   --   ---xx   flac  0.5837  06 My Brother Esau.flac
     4:45.20       50321084 B   ---   --   ---xx   flac  0.6250  07 Far From Me.flac
     6:00.10       63527564 B   ---   --   ---xx   flac  0.5982  08 It Must Have Been The Roses.flac
    10:42.38      113338220 B   ---   --   ---xx   flac  0.6090  09 Desolation Row.flac
     4:38.05       49051004 B   ---   --   ---xx   flac  0.6264  10 Might As Well.flac
     4:41.45       49674284 B   ---   --   ---xx   flac  0.6021  11 Promised Land.flac
     2:34.03       27172700 B   ---   --   ---xx   flac  0.5097  12 Tuning.flac
     6:08.03       64922300 B   ---   --   ---xx   flac  0.6317  13 Hell In A Bucket.flac
     6:25.53       68038700 B   ---   --   ---xx   flac  0.6232  14 Iko Iko.flac
     9:38.27      102022748 B   ---   --   ---xx   flac  0.5870  15 Looks Like Rain.flac
    10:19.71      109358636 B   ---   --   ---xx   flac  0.5925  16 He's Gone.flac
     9:31.56      100856156 B   ---   --   ---xx   flac  0.5338  17 Drums.flac
     6:51.16       72538076 B   ---   --   ---xx   flac  0.5023  18 Space.flac
     7:17.11       77112716 B   ---   --   ---xx   flac  0.5618  19 The Other One.flac
     8:10.17       86476028 B   ---   --   ---xx   flac  0.5775  20 Wharf Rat.flac
     9:07.15       96526124 B   ---   --   ---xx   flac  0.6067  21 Throwing Stones.flac
     6:59.47       74022188 B   ---   --   ---xx   flac  0.6025  22 Not Fade Away.flac
     1:19.23       13989740 B   ---   --   ---xx   flac  0.5218  23 Encore Break.flac
     6:05.64       64536572 B   ---   --   ---xx   flac  0.6294  24 Touch Of Grey.flac
     5:34.35       58999964 B   ---   --   ---xx   flac  0.5717  25 Brokedown Palace.flac
   153:55.60     1629196220 B                            0.5855  (25 files)




More information about the bittorrent mailing list