[bittorrent] gd1987-09-19.137413.sbd.miller.flac16

Automated Mailer noreply-bt.e at etree.org
Sun Dec 25 18:49:18 UTC 2016


Band:           Grateful Dead
Torrent Name:   gd1987-09-19.137413.sbd.miller.flac16
Uploaded by:    norm
DB Link:        
Details:        http://bt.etree.org/details.php?id=590500

Contact the seeder at http://db.etree.org/norm

If the link to this show does not work, it was probably removed for
being non-trade-friendly.

Description / text file:
-------------------------
Grateful Dead - September 19, 1987
Madison Square Garden - New York, NY

Recording Info:
SBD > Cassette Master (TDK SA-X90)

Transfer Info:
Cassette Master (Nakamichi DR-1) > Tascam DA-3000 (DSF 1-bit/5.8 MHz) >
KORG AudioGate 4 > Adobe Audition CC 2015 > Samplitude Pro X3 Suite > FLAC/24
(1 Disc FLAC)

All Transfers and Mastering By Charlie Miller
charliemiller87 at earthlink.net
December 23, 2016

Notes:
-- Maggie's Farm was broadcast on TV for Farm Aid
-- Two sets of masters were used to make show complete
-- Thanks to Joe B. Jones for his help with the pitch correction

**This fileset is 16bit @ 44.1**
137405 24bit > 16bit with r8brain

Set 1:
01 - Mississippi Half-Step Uptown Toodeloo >
02 - It's All Over Now
03 - High Time
04 - Mexicali Blues >
05 - Big River
06 - When Push Comes To Shove
07 - Box Of Rain >
08 - Don't Ease Me In

Set 2:
09 - Tuning
10 - Crazy Fingers >
11 - Uncle John's Band >
12 - Playing In The Band >
13 - Drums >
14 - Space >
15 - I Need A Miracle >
16 - Maggie's Farm >
17 - Black Peter >
18 - Around And Around >
19 - Turn On Your Lovelight

Encore:
20 - Encore Break
21 - Black Muddy River


SHNTOOL OUTPUT:
    length     expanded size    cdr  WAVE problems  fmt   ratio  filename
     7:47.56       82510556 B   ---   --   ---xx   flac  0.6124  01 Mississippi Half-Step Uptown Toodeloo.flac
    10:48.46      114415436 B   ---   --   ---xx   flac  0.6299  02 It's All Over Now.flac
     9:33.57      101211308 B   ---   --   ---xx   flac  0.5784  03 High Time.flac
     4:37.61       49006316 B   ---   --   ---xx   flac  0.6303  04 Mexicali Blues.flac
     6:20.46       67140236 B   ---   --   ---xx   flac  0.6137  05 Big River.flac
     5:43.53       60629900 B   ---   --   ---xx   flac  0.6028  06 When Push Comes To Shove.flac
     5:03.49       53564492 B   ---   --   ---xx   flac  0.6157  07 Box Of Rain.flac
     3:45.43       39791180 B   ---   --   ---xx   flac  0.6234  08 Don't Ease Me In.flac
     3:06.71       32977436 B   ---   --   ---xx   flac  0.5256  09 Tuning.flac
     8:15.23       87372140 B   ---   --   ---xx   flac  0.6044  10 Crazy Fingers.flac
     8:56.24       94606892 B   ---   --   ---xx   flac  0.6218  11 Uncle John's Band.flac
    15:39.36      165724316 B   ---   --   ---xx   flac  0.5988  12 Playing In The Band.flac
     8:56.21       94599836 B   ---   --   ---xx   flac  0.5433  13 Drums.flac
     4:02.31       42761756 B   ---   --   ---xx   flac  0.5023  14 Space.flac
     3:45.00       39690044 B   ---   --   ---xx   flac  0.6025  15 I Need A Miracle.flac
     6:57.42       73657628 B   ---   --   ---xx   flac  0.6141  16 Maggie's Farm.flac
     8:46.51       92906396 B   ---   --   ---xx   flac  0.5874  17 Black Peter.flac
     3:48.05       40231004 B   ---   --   ---xx   flac  0.6113  18 Around And Around.flac
     5:57.59       63113612 B   ---   --   ---xx   flac  0.6119  19 Turn On Your Lovelight.flac
     1:09.11       12197516 B   ---   --   ---xx   flac  0.5282  20 Encore Break.flac
     6:52.58       72813260 B   ---   --   ---xx   flac  0.5872  21 Black Muddy River.flac
   139:55.18     1480921260 B                            0.5975  (21 files)




More information about the bittorrent mailing list