[bittorrent] Battlefield Collective Nik's Place Marietta, Georgia 12/24/2016 (Schoeps CCM4V'S FOB)

Automated Mailer noreply-bt.e at etree.org
Sun Dec 25 16:34:56 UTC 2016


Band:           Other
Torrent Name:   Battlefield Collective Nik's Place Marietta, Georgia 12/24/2016 (Schoeps CCM4V'S FOB)
Uploaded by:    zmanatl
DB Link:        
Details:        http://bt.etree.org/details.php?id=590499

Contact the seeder at http://db.etree.org/zmanatl

If the link to this show does not work, it was probably removed for
being non-trade-friendly.

Description / text file:
-------------------------
Battlefield Collective
Nik's Place
Marietta, Georgia
12/24/2016 

Source: Schoeps CCM4V's>Lunatec V2>Benchmark AD2K>
Sound Devices 722 (24/44)
FOB/DFC/KFC/ZFC/AARP Stage Lip, 6' High
DSP: Sound Devices 722>Sound Forge 10.0>CD Wave>flac(16)
ID3 Tagged In Foobar 2000
Recorded By: Z-Man
Seeded By: Z-Man

Disc I 1st Set

01 Greeting
02 You Swept Me Away
03 Leavin' On A Jet Plane
04 The One I Love
05 Bad Moon Rising 
06 Riptide
07 Ring Of Fire
08 These Boots Are Made For Walkin'
09 Fallin'
10 Mountain Song
11 Happy Together
12 Madness
13 I Won't Back Down
14 Old #7

Disc II 2nd Set

01 Greeting/Banter
02 Zombie
03 Blister In The Sun
04 Tainted Love
05 Semi-Charmed Life
06 Banter/Band Introductions 
07 So Say We All 
08 *Home
09 *Waiting Up For You
10 *Mad World
11 Burning Down The House
12 Band Introductions
13 Dance With Me
14 Jolene
15 Peanuts Theme/Outro

* Adam On Accordian

Evan Hart - Fiddle And Vocals
Stephanie Caron - Acoustic Guitar And Vocals
Adam Holiday - Keyboards, Accordian, Percussion, And Vocals
Jody White - Drums
Rashad Abu-Azzam - Bass

battlefield2016-12-24d01t01.flac:22a315eef3404afeb59b8836fe86589a
battlefield2016-12-24d01t02.flac:00abfba1e47d059dd4f25b2fb956f9cd
battlefield2016-12-24d01t03.flac:e566f25baebf18d3cf6f9bf9dc1b5f4b
battlefield2016-12-24d01t04.flac:4cbecc547f019d014796686fc127d9d4
battlefield2016-12-24d01t05.flac:3774aac65f94361d6d643ef894500942
battlefield2016-12-24d01t06.flac:3a781965902536fa66235f87ae34b99f
battlefield2016-12-24d01t07.flac:7d551a71b3600e51947bea75f508a39b
battlefield2016-12-24d01t08.flac:5234d3745c928f845badacd443c56cb4
battlefield2016-12-24d01t09.flac:ad9e1e030d549e4b6ca989e42ec03561
battlefield2016-12-24d01t10.flac:93fe7b8e7bba4890012fe458c004fded
battlefield2016-12-24d01t11.flac:e95a56e941e51384c1734acc1625afc0
battlefield2016-12-24d01t12.flac:e1b76bf4a6b0da15180cf8878a86b610
battlefield2016-12-24d01t13.flac:245b2ff3c6771b97eb607f43c4d8df14
battlefield2016-12-24d01t14.flac:1fc568b158df5c2c03c308c7799cbf16
battlefield2016-12-24d02t01.flac:3a09581eac9d32030d2dcc8d32827355
battlefield2016-12-24d02t02.flac:181c2cee45f3b7c5e6918991043bc830
battlefield2016-12-24d02t03.flac:9fbc6fff4fd376b6169a9a88e85003de
battlefield2016-12-24d02t04.flac:846c00b0131de23f974770150e9642b1
battlefield2016-12-24d02t05.flac:ec352ebacb83a5ffeae4f56fff7e1902
battlefield2016-12-24d02t06.flac:ba810f87b8d8449a45b912bd1f554e05
battlefield2016-12-24d02t07.flac:3bb13e77a258e820853b43aedd0dde34
battlefield2016-12-24d02t08.flac:6e28e2ee69fd1838495a642d1dff5d2e
battlefield2016-12-24d02t09.flac:911babbd987d7d9ddba52788ae72015f
battlefield2016-12-24d02t10.flac:35abb95c953cd998a2f2d786fb091c3e
battlefield2016-12-24d02t11.flac:967b57d955f76f0b5d54f77e98fea0ee
battlefield2016-12-24d02t12.flac:9e646d43c00d69e508eae8faece724d0
battlefield2016-12-24d02t13.flac:981b08fc7f5ecabf2a92a0e822e5e4d2
battlefield2016-12-24d02t14.flac:24d077e11e03a5afd5fe4a7e5c0557da
battlefield2016-12-24d02t15.flac:e32157c04c30be0c70a4f72aecdb6594

length     expanded size    cdr  WAVE problems  fmt   ratio  filename
     0:34.06        6011756 B   ---   --   ---xx   flac  0.3496  battlefield2016-12-24d01t01.flac
     4:44.30       50168204 B   ---   --   ---xx   flac  0.5898  battlefield2016-12-24d01t02.flac
     4:34.66       48488876 B   ---   --   ---xx   flac  0.5951  battlefield2016-12-24d01t03.flac
     4:34.22       48385388 B   ---   --   ---xx   flac  0.5528  battlefield2016-12-24d01t04.flac
     3:37.52       38401148 B   ---   --   ---xx   flac  0.5949  battlefield2016-12-24d01t05.flac
     4:10.21       44149436 B   ---   --   ---xx   flac  0.6026  battlefield2016-12-24d01t06.flac
     4:43.25       49980044 B   ---   --   ---xx   flac  0.5555  battlefield2016-12-24d01t07.flac
     3:04.22       32509388 B   ---   --   ---xx   flac  0.6028  battlefield2016-12-24d01t08.flac
     4:56.69       52376732 B   ---   --   ---xx   flac  0.5764  battlefield2016-12-24d01t09.flac
     4:18.34       45591212 B   ---   --   ---xx   flac  0.6059  battlefield2016-12-24d01t10.flac
     6:38.01       70209596 B   ---   --   ---xx   flac  0.5557  battlefield2016-12-24d01t11.flac
     4:32.10       48004364 B   ---   --   ---xx   flac  0.6173  battlefield2016-12-24d01t12.flac
     4:38.60       49180364 B   ---   --   ---xx   flac  0.5881  battlefield2016-12-24d01t13.flac
     8:56.26       94611596 B   ---   --   ---xx   flac  0.6120  battlefield2016-12-24d01t14.flac
     0:40.69        7218332 B   ---   --   ---xx   flac  0.3706  battlefield2016-12-24d02t01.flac
     6:56.67       73540028 B   ---   --   ---xx   flac  0.5762  battlefield2016-12-24d02t02.flac
     3:03.40       32375324 B   ---   --   ---xx   flac  0.5374  battlefield2016-12-24d02t03.flac
     3:28.29       36759452 B   ---   --   ---xx   flac  0.5368  battlefield2016-12-24d02t04.flac
     4:24.27       46633148 B   ---   --   ---xx   flac  0.5860  battlefield2016-12-24d02t05.flac
     2:10.15       22967324 B   ---   --   ---xx   flac  0.3979  battlefield2016-12-24d02t06.flac
     5:53.54       62396252 B   ---   --   ---xx   flac  0.5507  battlefield2016-12-24d02t07.flac
     7:13.13       76411820 B   ---   --   ---xx   flac  0.5505  battlefield2016-12-24d02t08.flac
     6:02.00       63856844 B   ---   --   ---xx   flac  0.5391  battlefield2016-12-24d02t09.flac
     5:30.62       58357868 B   ---   --   ---xx   flac  0.5629  battlefield2016-12-24d02t10.flac
     6:29.52       68741948 B   ---   --   ---xx   flac  0.6165  battlefield2016-12-24d02t11.flac
     1:06.21       11691836 B   ---   --   ---xx   flac  0.3757  battlefield2016-12-24d02t12.flac
     5:19.57       56405708 B   ---   --   ---xx   flac  0.5611  battlefield2016-12-24d02t13.flac
     4:28.22       47326988 B   ---   --   ---xx   flac  0.5953  battlefield2016-12-24d02t14.flac
     2:08.53       22703900 B   ---   --   ---xx   flac  0.3727  battlefield2016-12-24d02t15.flac
   129:00.50     1365454876 B                            0.5674  (29 files)











More information about the bittorrent mailing list