[bittorrent] Alex Guthrie Duo Cinco Atlanta, Georgia 12/23/2016 (Schoeps CCM4V'S FOB)

Automated Mailer noreply-bt.e at etree.org
Sun Dec 25 01:12:36 UTC 2016


Band:           Other
Torrent Name:   Alex Guthrie Duo Cinco Atlanta, Georgia 12/23/2016 (Schoeps CCM4V'S FOB)
Uploaded by:    zmanatl
DB Link:        
Details:        http://bt.etree.org/details.php?id=590491

Contact the seeder at http://db.etree.org/zmanatl

If the link to this show does not work, it was probably removed for
being non-trade-friendly.

Description / text file:
-------------------------
Alex Guthrie Duo
Cinco
Atlanta, Georgia
12/23/2016 

Source: Schoeps CCM4V's>Lunatec V2>Benchmark AD2K>
Sound Devices 722 (24/44)
FOB/DFC/KFC/ZFC/AARP 5' From Stage, 6' High
DSP: Sound Devices 722>Sound Forge 10.0>CD Wave>flac(16)
ID3 Tagged In Foobar 2000
Recorded By: Z-Man
Seeded By: Z-Man

Disc I 

1st Set:
01 ?
02 ?
03 Valerie
2nd Set:
04 White Christmas Jam
05 Hard To Handle
06 ? 
07 Luckiest Man
08 Got A Hold On Me Baby
09 Papa Was A Rolling Stone >
10 Crazy 
11 ?
12 She Talks To Angels 
13 Lonely Night In Georgia
14 ? >
15 Get On Up 
16 ? 
17 Christmas In LA 
18 One Way Out

Alex Guthrie - Guitar Amd Vocals
Dave Ragsdale - Drums And Vocals

alex2016-12-23d01t01.flac:690a7478eb31cb43159f379b96d82d9c
alex2016-12-23d01t02.flac:ce039324c58db6f659d6f21a83c3063d
alex2016-12-23d01t03.flac:aa1b82a2f58c20f3611da5ea35ff2f7d
alex2016-12-23d01t04.flac:cc324a8f35ab4f4fdae3ca80f7cd08d2
alex2016-12-23d01t05.flac:4a315aa0db02958d662645a03505ad64
alex2016-12-23d01t06.flac:a128c0f3a89feeee52353c423e0a3d78
alex2016-12-23d01t07.flac:a991bbb0111fa92799d6a065066c35b8
alex2016-12-23d01t08.flac:54146821612ca823ab8d30071e3940bd
alex2016-12-23d01t09.flac:24ad67f900eb99f788859011cd9401e3
alex2016-12-23d01t10.flac:db068ab820eb329b0ade76a26ba59b12
alex2016-12-23d01t11.flac:fcdf7cebe0af20303cec99e95e27d92c
alex2016-12-23d01t12.flac:85c0a3b28decb0774f3d102a545994a7
alex2016-12-23d01t13.flac:59977972ca57c1fb84a14b368e6f0bd9
alex2016-12-23d01t14.flac:bc7086e555bfbdb62175b0d31a1d9622
alex2016-12-23d01t15.flac:50b1b7a3ecb0dd832ac6fae28a173727
alex2016-12-23d01t16.flac:1de7e539b36135d4113ea0f0a8f58f30
alex2016-12-23d01t17.flac:3e70ae31c110e8879cba14827475f162
alex2016-12-23d01t18.flac:8e8567306d4d185e43e0d1d271a12226

 length     expanded size    cdr  WAVE problems  fmt   ratio  filename
     4:29.06       47465756 B   ---   --   ---xx   flac  0.4475  alex2016-12-23d01t01.flac
     4:26.18       46964780 B   ---   --   ---xx   flac  0.4701  alex2016-12-23d01t02.flac
     4:59.37       52830668 B   ---   --   ---xx   flac  0.4673  alex2016-12-23d01t03.flac
     0:42.15        7444124 B   ---   --   ---xx   flac  0.2816  alex2016-12-23d01t04.flac
     4:22.36       46301516 B   ---   --   ---xx   flac  0.4767  alex2016-12-23d01t05.flac
     5:03.00       53449244 B   ---   --   ---xx   flac  0.4316  alex2016-12-23d01t06.flac
     3:50.46       40680236 B   ---   --   ---xx   flac  0.5126  alex2016-12-23d01t07.flac
     5:29.45       58141484 B   ---   --   ---xx   flac  0.4652  alex2016-12-23d01t08.flac
     2:18.48       24456140 B   ---   --   ---xx   flac  0.5398  alex2016-12-23d01t09.flac
     5:52.20       62139884 B   ---   --   ---xx   flac  0.4467  alex2016-12-23d01t10.flac
     4:38.53       49163900 B   ---   --   ---xx   flac  0.4167  alex2016-12-23d01t11.flac
     7:03.61       74760716 B   ---   --   ---xx   flac  0.4070  alex2016-12-23d01t12.flac
     8:51.30       93739004 B   ---   --   ---xx   flac  0.4585  alex2016-12-23d01t13.flac
     4:04.64       43192172 B   ---   --   ---xx   flac  0.5399  alex2016-12-23d01t14.flac
     2:01.41       21440876 B   ---   --   ---xx   flac  0.4692  alex2016-12-23d01t15.flac
     5:16.65       55895324 B   ---   --   ---xx   flac  0.4291  alex2016-12-23d01t16.flac
     1:37.70       17275484 B   ---   --   ---xx   flac  0.4568  alex2016-12-23d01t17.flac
     4:47.17       50666828 B   ---   --   ---xx   flac  0.4819  alex2016-12-23d01t18.flac
    79:55.72      846008136 B                            0.4582  (18 files)





















More information about the bittorrent mailing list