[bittorrent] gd1987-09-20.137407.sbd.miller.flac24

Automated Mailer noreply-bt.e at etree.org
Sun Dec 25 00:28:21 UTC 2016


Band:           Grateful Dead
Torrent Name:   gd1987-09-20.137407.sbd.miller.flac24
Uploaded by:    greendude
DB Link:        
Details:        http://bt.etree.org/details.php?id=590490

Contact the seeder at http://db.etree.org/greendude

If the link to this show does not work, it was probably removed for
being non-trade-friendly.

Description / text file:
-------------------------
Grateful Dead - September 20, 1987
Madison Square Garden - New York, NY

Recording Info:
SBD > Cassette Master (TDK SA-X90)

Transfer Info:
Cassette Master (Nakamichi DR-1) > Tascam DA-3000 (DSF 1-bit/5.8 MHz) >
KORG AudioGate 4 > Adobe Audition CC 2015 > Samplitude Pro X3 Suite > FLAC/24
(1 Disc FLAC)

All Transfers and Mastering By Charlie Miller
charliemiller87 at earthlink.net
December 23, 2016

Notes:
-- Two sets of masters were used to make show complete
-- Thanks to Joe B. Jones for his help with the pitch correction

Set 1:
01 - Tuning
02 - Funiculi Funicula
03 - Addams Family Tuning
04 - Jack Straw >
05 - West L.A. Fadeaway
06 - My Brother Esau
07 - Far From Me
08 - It Must Have Been The Roses
09 - Desolation Row >
10 - Might As Well >
11 - Promised Land

Set 2:
12 - Tuning
13 - Hell In A Bucket >
14 - Iko Iko >
15 - Looks Like Rain >
16 - He's Gone >
17 - Drums >
18 - Space >
19 - The Other One >
20 - Wharf Rat >
21 - Throwing Stones >
22 - Not Fade Away

Encore:
23 - Encore Break
24 - Touch Of Grey >
25 - Brokedown Palace


SHNTOOL OUTPUT:
    length     expanded size    cdr  WAVE problems  fmt   ratio  filename
     2:07.115      73218080 B   cxx   --   ---xx   flac  0.6340  01 Tuning.flac
     3:19.467     114893162 B   cxx   --   ---xx   flac  0.6379  02 Funiculi Funicula.flac
     0:36.351      20938166 B   cxx   --   ---xx   flac  0.6391  03 Addams Family Tuning.flac
     6:31.198     225330080 B   cxx   --   ---xx   flac  0.6660  04 Jack Straw.flac
     9:08.261     315798494 B   cxx   --   ---xx   flac  0.6606  05 West LA Fadeaway.flac
     5:22.907     185994434 B   cxx   --   ---xx   flac  0.6589  06 My Brother Esau.flac
     4:45.263     164311664 B   cxx   --   ---xx   flac  0.6741  07 Far From Me.flac
     6:00.125     207432326 B   cxx   --   ---xx   flac  0.6688  08 It Must Have Been The Roses.flac
    10:42.501     370080728 B   cxx   --   ---xx   flac  0.6653  09 Desolation Row.flac
     4:38.053     160158782 B   cxx   --   ---xx   flac  0.6757  10 Might As Well.flac
     4:41.591     162196664 B   cxx   --   ---xx   flac  0.6663  11 Promised Land.flac
     2:34.035      88724114 B   cxx   --   ---xx   flac  0.6380  12 Tuning.flac
     6:08.031     211985666 B   cxx   --   ---xx   flac  0.6791  13 Hell In A Bucket.flac
     6:25.702     222164414 B   cxx   --   ---xx   flac  0.6743  14 Iko Iko.flac
     9:38.353     333131492 B   cxx   --   ---xx   flac  0.6621  15 Looks Like Rain.flac
    10:19.942     357086786 B   cxx   --   ---xx   flac  0.6656  16 He's Gone.flac
     9:31.744     329324696 B   cxx   --   ---xx   flac  0.6402  17 Drums.flac
     6:51.206     236854670 B   cxx   --   ---xx   flac  0.6283  18 Space.flac
     7:17.136     251790362 B   cxx   --   ---xx   flac  0.6542  19 The Other One.flac
     8:10.221     282367070 B   cxx   --   ---xx   flac  0.6588  20 Wharf Rat.flac
     9:07.195     315184598 B   cxx   --   ---xx   flac  0.6679  21 Throwing Stones.flac
     6:59.621     241702010 B   cxx   --   ---xx   flac  0.6667  22 Not Fade Away.flac
     1:19.304      45679100 B   cxx   --   ---xx   flac  0.6410  23 Encore Break.flac
     6:05.841     210724268 B   cxx   --   ---xx   flac  0.6773  24 Touch Of Grey.flac
     5:34.458     192647594 B   cxx   --   ---xx   flac  0.6370  25 Brokedown Palace.flac
   153:55.622    5319719420 B                            0.6601  (25 files)




More information about the bittorrent mailing list