[bittorrent] gd1987-09-19.137405.sbd.miller.flac24

Automated Mailer noreply-bt.e at etree.org
Sun Dec 25 00:25:01 UTC 2016


Band:           Grateful Dead
Torrent Name:   gd1987-09-19.137405.sbd.miller.flac24
Uploaded by:    greendude
DB Link:        
Details:        http://bt.etree.org/details.php?id=590489

Contact the seeder at http://db.etree.org/greendude

If the link to this show does not work, it was probably removed for
being non-trade-friendly.

Description / text file:
-------------------------
Grateful Dead - September 19, 1987
Madison Square Garden - New York, NY

Recording Info:
SBD > Cassette Master (TDK SA-X90)

Transfer Info:
Cassette Master (Nakamichi DR-1) > Tascam DA-3000 (DSF 1-bit/5.8 MHz) >
KORG AudioGate 4 > Adobe Audition CC 2015 > Samplitude Pro X3 Suite > FLAC/24
(1 Disc FLAC)

All Transfers and Mastering By Charlie Miller
charliemiller87 at earthlink.net
December 23, 2016

Notes:
-- Maggie's Farm was broadcast on TV for Farm Aid
-- Two sets of masters were used to make show complete
-- Thanks to Joe B. Jones for his help with the pitch correction

Set 1:
01 - Mississippi Half-Step Uptown Toodeloo >
02 - It's All Over Now
03 - High Time
04 - Mexicali Blues >
05 - Big River
06 - When Push Comes To Shove
07 - Box Of Rain >
08 - Don't Ease Me In

Set 2:
09 - Tuning
10 - Crazy Fingers >
11 - Uncle John's Band >
12 - Playing In The Band >
13 - Drums >
14 - Space >
15 - I Need A Miracle >
16 - Maggie's Farm >
17 - Black Peter >
18 - Around And Around >
19 - Turn On Your Lovelight

Encore:
20 - Encore Break
21 - Black Muddy River


SHNTOOL OUTPUT:
    length     expanded size    cdr  WAVE problems  fmt   ratio  filename
     7:47.746     269421902 B   cxx   --   ---xx   flac  0.6791  01 Mississippi Half-Step Uptown Toodeloo.flac
    10:48.609     373598852 B   cxx   --   ---xx   flac  0.6872  02 It's All Over Now.flac
     9:33.757     330483854 B   cxx   --   ---xx   flac  0.6689  03 High Time.flac
     4:37.808     160017386 B   cxx   --   ---xx   flac  0.6816  04 Mexicali Blues.flac
     6:20.604     219227768 B   cxx   --   ---xx   flac  0.6747  05 Big River.flac
     5:43.704     197973596 B   cxx   --   ---xx   flac  0.6713  06 When Push Comes To Shove.flac
     5:03.646     174899960 B   cxx   --   ---xx   flac  0.6804  07 Box Of Rain.flac
     3:45.561     129923126 B   cxx   --   ---xx   flac  0.6828  08 Don't Ease Me In.flac
     3:06.942     107678912 B   cxx   --   ---xx   flac  0.6606  09 Tuning.flac
     8:15.303     285294638 B   cxx   --   ---xx   flac  0.6849  10 Crazy Fingers.flac
     8:56.312     308915582 B   cxx   --   ---xx   flac  0.6824  11 Uncle John's Band.flac
    15:39.474     541136804 B   cxx   --   ---xx   flac  0.6718  12 Playing In The Band.flac
     8:56.273     308893154 B   cxx   --   ---xx   flac  0.6489  13 Drums.flac
     4:02.404     139624850 B   cxx   --   ---xx   flac  0.6346  14 Space.flac
     3:44.998     129598712 B   cxx   --   ---xx   flac  0.6665  15 I Need A Miracle.flac
     6:57.558     240513644 B   cxx   --   ---xx   flac  0.6711  16 Maggie's Farm.flac
     8:46.674     303364424 B   cxx   --   ---xx   flac  0.6626  17 Black Peter.flac
     3:48.059     131361974 B   cxx   --   ---xx   flac  0.6697  18 Around And Around.flac
     5:57.776     206078780 B   cxx   --   ---xx   flac  0.6691  19 Turn On Your Lovelight.flac
     1:09.141      39825314 B   cxx   --   ---xx   flac  0.6420  20 Encore Break.flac
     6:52.773     237757154 B   cxx   --   ---xx   flac  0.6647  21 Black Muddy River.flac
   139:55.121    4835590386 B                            0.6714  (21 files)




More information about the bittorrent mailing list