[bittorrent] gd1971-10-30.137408.fm.GEMS.flac16

Automated Mailer noreply-bt.e at etree.org
Sun Dec 25 00:21:09 UTC 2016


Band:           Grateful Dead
Torrent Name:   gd1971-10-30.137408.fm.GEMS.flac16
Uploaded by:    greendude
DB Link:        
Details:        http://bt.etree.org/details.php?id=590488

Contact the seeder at http://db.etree.org/greendude

If the link to this show does not work, it was probably removed for
being non-trade-friendly.

Description / text file:
-------------------------
Grateful Dead
Saturday, October 30, 1971
Taft Theater
Cincinnati, Ohio

Recording of the FM Broadcast on WEBN Cincinnati
DAT provided and transferred by Stuccoholmes

Editing and Mastering by Jamie Waddell in Wavelab 7.1
Critical Listening assitance by John Wenzel
Track, FLAC and Pack by Norm

A gift to www.shnflac.net and to all
who help share so much grateful music,
much more to come.  December 24, 2016

--Set One--
01 /Bertha [ slightly cut at start, all copies ]
02 tuning
03 Me And My Uncle
04 tuning
05 Sugaree
06 tuning
07 Beat It On Down The Line
08 tuning
09 Loser
10 tuning
11 Playin' In The Band
12 tuning
13 Tennessee Jed
14 tuning
15 Jack Straw
16 tuning
17 Big RR Blues
18 tuning
19 Me And Bobby McGee
20 tuning
21 Brown-Eyed Women
22 One More Saturday Night
23 radio intermission

--Set Two--
24 Casey Jones
25 tuning
26 Mexicali Blues
27 tuning
28 Comes A Time
29 tuning
30 El Paso
31 tuning
32 Ramble On Rose
33 tuning
34 Sugar Magnolia
35 tuning
36 Truckin'
37 tuning
38 Not Fade Away >
39 GDTRFB >
40 Not Fade Away
41 radio outro


Notes:
-Same issues in end of tape as 2004 seed
-DAT supplies the entire show until about 1 minute into GDTRFB, where I used Doug Nawrocki's 2004 fine patch work, quote
-"in GDTRFB where the secondary source is crossfaded in. The patch was necessary as the primary source was marred with digital noise. 
If another MR transfer exists, please share it. - Sonic Foundry Pitch Shift applied to secondary source at +52.2 semitones on high setting w/Anti-Alias Filter"
-secondary source notes as provided in 2004 seed "...FM > Pioneer RT-707 (7" reel @ 7 1/2 ips) > CD Conversion: Kenwood TrueX > EAC > shn v3..."
-lots of little FM static things removed transparently throughout show
-DAT provided about 75 seconds more radio outro and I included it though a few audio gremlins exist, it's just crowd and DJ Chatter

    length     expanded size    cdr  WAVE problems  fmt   ratio  filename
     5:33.00       58741244 B   ---   --   ---xx   flac  0.5631  gd1971-10-30s1t01.flac
     0:50.48        8932940 B   ---   --   ---xx   flac  0.4738  gd1971-10-30s1t02.flac
     3:04.33       32535260 B   ---   --   ---xx   flac  0.5610  gd1971-10-30s1t03.flac
     2:40.08       28242860 B   ---   --   ---xx   flac  0.4550  gd1971-10-30s1t04.flac
     7:14.43       76658780 B   ---   --   ---xx   flac  0.5580  gd1971-10-30s1t05.flac
     1:49.54       19354652 B   ---   --   ---xx   flac  0.4648  gd1971-10-30s1t06.flac
     3:10.49       33631292 B   ---   --   ---xx   flac  0.5940  gd1971-10-30s1t07.flac
     1:21.70       14453084 B   ---   --   ---xx   flac  0.5037  gd1971-10-30s1t08.flac
     6:31.71       69139436 B   ---   --   ---xx   flac  0.5626  gd1971-10-30s1t09.flac
     2:35.38       27431420 B   ---   --   ---xx   flac  0.5014  gd1971-10-30s1t10.flac
     6:18.19       66723932 B   ---   --   ---xx   flac  0.5793  gd1971-10-30s1t11.flac
     1:38.39       17378972 B   ---   --   ---xx   flac  0.4968  gd1971-10-30s1t12.flac
     6:39.51       70503596 B   ---   --   ---xx   flac  0.5806  gd1971-10-30s1t13.flac
     2:20.72       24865388 B   ---   --   ---xx   flac  0.4900  gd1971-10-30s1t14.flac
     4:49.62       51125468 B   ---   --   ---xx   flac  0.5684  gd1971-10-30s1t15.flac
     2:20.17       24736028 B   ---   --   ---xx   flac  0.4783  gd1971-10-30s1t16.flac
     3:37.32       38354108 B   ---   --   ---xx   flac  0.5908  gd1971-10-30s1t17.flac
     1:15.28       13295900 B   ---   --   ---xx   flac  0.5133  gd1971-10-30s1t18.flac
     5:38.22       59674988 B   ---   --   ---xx   flac  0.5792  gd1971-10-30s1t19.flac
     1:54.55       20239004 B   ---   --   ---xx   flac  0.4954  gd1971-10-30s1t20.flac
     4:44.51       50217596 B   ---   --   ---xx   flac  0.5603  gd1971-10-30s1t21.flac
     4:44.28       50163500 B   ---   --   ---xx   flac  0.5770  gd1971-10-30s1t22.flac
     3:51.56       40880156 B   ---   --   ---xx   flac  0.5646  gd1971-10-30s1t23.flac
     5:43.34       60585212 B   ---   --   ---xx   flac  0.5565  gd1971-10-30s2t01.flac
     1:46.49       18813692 B   ---   --   ---xx   flac  0.5052  gd1971-10-30s2t02.flac
     3:27.58       36651260 B   ---   --   ---xx   flac  0.5532  gd1971-10-30s2t03.flac
     1:05.01       11468396 B   ---   --   ---xx   flac  0.4903  gd1971-10-30s2t04.flac
     8:06.40       85824524 B   ---   --   ---xx   flac  0.5328  gd1971-10-30s2t05.flac
     1:16.46       13514636 B   ---   --   ---xx   flac  0.4658  gd1971-10-30s2t06.flac
     4:42.03       49751900 B   ---   --   ---xx   flac  0.5407  gd1971-10-30s2t07.flac
     1:14.03       13060700 B   ---   --   ---xx   flac  0.4686  gd1971-10-30s2t08.flac
     6:18.09       66700412 B   ---   --   ---xx   flac  0.5483  gd1971-10-30s2t09.flac
     1:42.04       18002252 B   ---   --   ---xx   flac  0.4894  gd1971-10-30s2t10.flac
     6:07.53       64863500 B   ---   --   ---xx   flac  0.5783  gd1971-10-30s2t11.flac
     1:56.08       20481260 B   ---   --   ---xx   flac  0.4738  gd1971-10-30s2t12.flac
     9:01.09       95453612 B   ---   --   ---xx   flac  0.5584  gd1971-10-30s2t13.flac
     1:57.31       20711756 B   ---   --   ---xx   flac  0.4652  gd1971-10-30s2t14.flac
     9:53.23      104659340 B   ---   --   ---xx   flac  0.5526  gd1971-10-30s2t15.flac
     8:05.00       85554044 B   ---   --   ---xx   flac  0.5569  gd1971-10-30s2t16.flac
     3:24.63       36133820 B   ---   --   ---xx   flac  0.5551  gd1971-10-30s2t17.flac
     1:33.00       16405244 B   ---   --   ---xx   flac  0.5025  gd1971-10-30s2t18.flac
   162:07.30     1715915164 B                            0.5473  (41 files)




More information about the bittorrent mailing list