[bittorrent] gd1982-04-12.aud.schley.137410.flac2448

Automated Mailer noreply-bt.e at etree.org
Sat Dec 24 23:48:35 UTC 2016


Band:           Grateful Dead
Torrent Name:   gd1982-04-12.aud.schley.137410.flac2448
Uploaded by:    nfagdtrfb
DB Link:        
Details:        http://bt.etree.org/details.php?id=590486

Contact the seeder at http://db.etree.org/nfagdtrfb

If the link to this show does not work, it was probably removed for
being non-trade-friendly.

Description / text file:
-------------------------
GRATEFUL DEAD
Nassau Coliseum
Uniondale NY
04-12-1982

24bit/48kHz file-set

s1t01 Iko Iko
s1t02 Minglewood Blues
s1t03 Peggy-O
s1t04 Mama Tried >
s1t05 Mexicali Blues
s1t06 Birdsong
s1t07 C.C. Rider
s1t08 Tennessee Jed
s1t09 Looks Like Rain
s1t10 Deal

s2t01 Women are Smarter >
s2t02 Sugaree
s2t03 Estimated Prophet >
s2t04 Uncle John's Band >
s2t05 Drums >
s2t06 Space >
s2t07 The Other One >
s2t08 Stella Blue >
s2t09 Sugar Magnolia
s2t10 Encore: Satisfaction

AUD: Unknown mics (likely Beyers) > lead deck > Sony TC-D5M > 
Maxell XLII's, FOB recording by Brian Schley.

Transfer: Set 1 (1982 1st-gen) and Set 2 (MAC) > Nakamichi CR-5A > 
Edirol FA-66 > Wavelab 2448 > CD-Wave (24bit output) > TLH > FLAC 
2448 tagged. Transferred by Andrew F. 12/2016

Note: Lineage is noted as best as can be recalled at this time... 
Craig L. kindly provided the 1st-gen back-up tape used for Set 1. 
Patches from ID-113824; Iko 0:00 > 0:19, Minglewood 0:00 > 0:10, 
C.C.Rider 0:00 > 0:22, Women 0:00 > 0:20, and Drums 7:56 > 9:32. 
Thanks Jon Pasternak & Charlie McGuth for organizing this project!

    length     expanded size    cdr  WAVE problems  fmt   ratio  filename
     5:51.147     101130284 B   cxx   --   ---xx   flac  0.7245  gd1982-04-12s1t01.flac
     7:52.027     135943724 B   cxx   --   ---xx   flac  0.7267  gd1982-04-12s1t02.flac
     7:27.013     128739884 B   cxx   --   ---xx   flac  0.7120  gd1982-04-12s1t03.flac
     2:34.200      44409644 B   cxx   --   ---xx   flac  0.7274  gd1982-04-12s1t04.flac
     4:55.733      85171244 B   cxx   --   ---xx   flac  0.7329  gd1982-04-12s1t05.flac
     9:01.160     155854124 B   cxx   --   ---xx   flac  0.7213  gd1982-04-12s1t06.flac
     7:44.653     133820204 B   cxx   --   ---xx   flac  0.7209  gd1982-04-12s1t07.flac
     8:52.013     153219884 B   cxx   --   ---xx   flac  0.7241  gd1982-04-12s1t08.flac
     8:12.373     141803564 B   cxx   --   ---xx   flac  0.7193  gd1982-04-12s1t09.flac
     7:29.425     129434510 B   cxx   --   ---xx   flac  0.7349  gd1982-04-12s1t10.flac
     6:12.760     107354924 B   cxx   --   ---xx   flac  0.7212  gd1982-04-12s2t01.flac
    14:36.267     252364844 B   cxx   --   ---xx   flac  0.7157  gd1982-04-12s2t02.flac
    11:56.080     206231084 B   cxx   --   ---xx   flac  0.7194  gd1982-04-12s2t03.flac
     6:26.440     111294764 B   cxx   --   ---xx   flac  0.7275  gd1982-04-12s2t04.flac
     9:45.800     168710444 B   cxx   --   ---xx   flac  0.6979  gd1982-04-12s2t05.flac
     6:13.173     107473964 B   cxx   --   ---xx   flac  0.6845  gd1982-04-12s2t06.flac
     8:06.213     140029484 B   cxx   --   ---xx   flac  0.7086  gd1982-04-12s2t07.flac
    11:19.253     195625004 B   cxx   --   ---xx   flac  0.6989  gd1982-04-12s2t08.flac
    10:04.080     173975084 B   cxx   --   ---xx   flac  0.7209  gd1982-04-12s2t09.flac
     7:03.861     122072138 B   cxx   --   ---xx   flac  0.7166  gd1982-04-12s2t10.flac
   161:43.673    2794658800 B                            0.7167  (20 files)

No errors occured.




More information about the bittorrent mailing list