[bittorrent] gd1982-04-12.aud.schley.137411.flac1644

Automated Mailer noreply-bt.e at etree.org
Sat Dec 24 23:48:38 UTC 2016


Band:           Grateful Dead
Torrent Name:   gd1982-04-12.aud.schley.137411.flac1644
Uploaded by:    nfagdtrfb
DB Link:        
Details:        http://bt.etree.org/details.php?id=590487

Contact the seeder at http://db.etree.org/nfagdtrfb

If the link to this show does not work, it was probably removed for
being non-trade-friendly.

Description / text file:
-------------------------
GRATEFUL DEAD
Nassau Coliseum
Uniondale NY
04-12-1982

16bit/44.1kHz file-set

s1t01 Iko Iko
s1t02 Minglewood Blues
s1t03 Peggy-O
s1t04 Mama Tried >
s1t05 Mexicali Blues
s1t06 Birdsong
s1t07 C.C. Rider
s1t08 Tennessee Jed
s1t09 Looks Like Rain
s1t10 Deal

s2t01 Women are Smarter >
s2t02 Sugaree
s2t03 Estimated Prophet >
s2t04 Uncle John's Band >
s2t05 Drums >
s2t06 Space >
s2t07 The Other One >
s2t08 Stella Blue >
s2t09 Sugar Magnolia
s2t10 Encore: Satisfaction

AUD: Unknown mics (likely Beyers) > lead deck > Sony TC-D5M > 
Maxell XLII's, FOB recording by Brian Schley.

Transfer: Set 1 (1982 1st-gen) and Set 2 (MAC) > Nakamichi CR-5A > 
Edirol FA-66 > Wavelab 2448 > CD-Wave (24bit output) > R8Brain > 
TLH > FLAC 1644 tagged. Transferred by Andrew F. 12/2016

Note: Lineage is noted as best as can be recalled at this time... 
Craig L. kindly provided the 1st-gen back-up tape used for Set 1. 
Patches from ID-113824; Iko 0:00 > 0:19, Minglewood 0:00 > 0:10, 
C.C.Rider 0:00 > 0:22, Women 0:00 > 0:20, and Drums 7:56 > 9:32. 
Thanks Jon Pasternak & Charlie McGuth for organizing this project!

    length     expanded size    cdr  WAVE problems  fmt   ratio  filename
     5:51.11       61942316 B   ---   --   ---xx   flac  0.5992  gd1982-04-12s1t01.flac
     7:52.02       83265548 B   ---   --   ---xx   flac  0.6032  gd1982-04-12s1t02.flac
     7:27.01       78853196 B   ---   --   ---xx   flac  0.5791  gd1982-04-12s1t03.flac
     2:34.15       27200924 B   ---   --   ---xx   flac  0.6043  gd1982-04-12s1t04.flac
     4:55.55       52167404 B   ---   --   ---xx   flac  0.6129  gd1982-04-12s1t05.flac
     9:01.12       95460668 B   ---   --   ---xx   flac  0.5942  gd1982-04-12s1t06.flac
     7:44.49       81964892 B   ---   --   ---xx   flac  0.5934  gd1982-04-12s1t07.flac
     8:52.01       93847196 B   ---   --   ---xx   flac  0.5983  gd1982-04-12s1t08.flac
     8:12.28       86854700 B   ---   --   ---xx   flac  0.5906  gd1982-04-12s1t09.flac
     7:29.32       79278908 B   ---   --   ---xx   flac  0.6165  gd1982-04-12s1t10.flac
     6:12.57       65754908 B   ---   --   ---xx   flac  0.5930  gd1982-04-12s2t01.flac
    14:36.20      154573484 B   ---   --   ---xx   flac  0.5824  gd1982-04-12s2t02.flac
    11:56.06      126316556 B   ---   --   ---xx   flac  0.5887  gd1982-04-12s2t03.flac
     6:26.33       68168060 B   ---   --   ---xx   flac  0.6018  gd1982-04-12s2t04.flac
     9:45.60      103335164 B   ---   --   ---xx   flac  0.5556  gd1982-04-12s2t05.flac
     6:13.13       65827820 B   ---   --   ---xx   flac  0.5310  gd1982-04-12s2t06.flac
     8:06.16       85768076 B   ---   --   ---xx   flac  0.5712  gd1982-04-12s2t07.flac
    11:19.19      119820332 B   ---   --   ---xx   flac  0.5558  gd1982-04-12s2t08.flac
    10:04.06      106559756 B   ---   --   ---xx   flac  0.5915  gd1982-04-12s2t09.flac
     7:03.65       74770124 B   ---   --   ---xx   flac  0.5855  gd1982-04-12s2t10.flac
   161:43.51     1711730032 B                            0.5855  (20 files)

No errors occured.




More information about the bittorrent mailing list