[bittorrent] Space Cabbage Social Club Part V - Winter Meltdown Aisle 5 Atlanta, Georgia 12/21/2016 (Schoeps CCM4V'S FOB)

Automated Mailer noreply-bt.e at etree.org
Sat Dec 24 05:19:57 UTC 2016


Band:           Other
Torrent Name:   Space Cabbage Social Club Part V - Winter Meltdown Aisle 5 Atlanta, Georgia 12/21/2016 (Schoeps CCM4V'S FOB)
Uploaded by:    zmanatl
DB Link:        
Details:        http://bt.etree.org/details.php?id=590478

Contact the seeder at http://db.etree.org/zmanatl

If the link to this show does not work, it was probably removed for
being non-trade-friendly.

Description / text file:
-------------------------
Space Cabbage Social Club Part V - Winter Meltdown
Aisle 5
Atlanta, Georgia
12/21/2016 

Source: Schoeps CCM4V's>Lunatec V2>Benchmark AD2K>
Sound Devices 722 (24/44)
FOB/DFC/KFC/ZFC/AARP 18' From Stage, 7' High
DSP: Sound Devices 722>Sound Forge 10.0>CD Wave>flac(16)
ID3 Tagged In Foobar 2000
Recorded By: Z-Man
Seeded By: Z-Man

Disc I 

Susannah And Doug (The Mesari Gang):
01 Greeting
02 ?
03 ?
04 ?
05 Gary Cameron Banter/Introductions
House Band With Niah Lyrical:
06  am 
07 ?
08 It's Over
09 I'll Be Waiting
House Band With Brian Caruso On Guitar: 
10 ?
11 Gary Cameron Banter
House Band With Carmen Meadows On Vocals:
12 You're So Vain
13 Girl From Ipanema
House Band With Carmen Meadows On Vocals And Louis Newmark On Guitar:
14 Gary Cameron Banter

Disc II

01 Gary Intro 
02 Serrson Plays Percussion 
03 Gary Cameron Banter
House Band With Ron Shirley II On Vocals:
04 Have A Holly Jolly Christmas
05 This Could Be Us
06 Prepared
07 Gary Cameron Banter
House Band With Louis Newmark On Guitar/Vocals And Ryan Marcus On Drums:
08 Leave Nothing Behind
09 *Eyes Of The World >
10 Franklin's Tower >
11 Blue Sky
12 Gary Cameron Banter
House Band With Niah, Ron, And Carmen On Vocals:
13 So This Is Christmas
14 Gary Cameron Banter

Disc III

Midnight Cypher With Valore And Cuda Bear:
01 ?
02 ?
03 ?
04 Dem Bones
05 ?
06 Gary Cameron Banter
House Band With Cassie Chantel
07 Who Is That
08 #Namaste Love 
09 #Fall
10 ? >
11 ? >
12 Blues Jam >
13 Country Jam > 
14 Psychedelic Jam >
15 Salsa Jam >
16 Rockabilly Jam >
17 Techno Jam >
18 Funk Jam >
19 Reggae Jam >
20 Disco Jam With Gary Banter 
21 Gary Cameron Banter And Thanks
 
* With Joy To The World Tease
# With Elle Capone (Pony Baby)

space2016-12-21d01t01.flac:6b8a8f8aa91288ee550a34b424de2e1e
space2016-12-21d01t02.flac:85680e0d20552990430e3af5e9e7dbf6
space2016-12-21d01t03.flac:ce0289669bbc71dc04fd57ec9f47b78a
space2016-12-21d01t04.flac:2b0046c705e34503b41ad848a703be6b
space2016-12-21d01t05.flac:9e9aff910bc03a986e4e4101a932cc3c
space2016-12-21d01t06.flac:873ee690f1b5056a479bd5dbfff27757
space2016-12-21d01t07.flac:b442713d094026ec8f360a26c551e382
space2016-12-21d01t08.flac:ecc78c107810c26e0b4db8abda03152b
space2016-12-21d01t09.flac:50a96ea7f2938a4bb25973651cd23c29
space2016-12-21d01t10.flac:9cff3e38b86d09b4d4fc6a44d0dd7a8a
space2016-12-21d01t11.flac:9c4fe7865b31b86fa08795d19598213e
space2016-12-21d01t12.flac:aa95e0032b337c7f78e3ec7120b6c777
space2016-12-21d01t13.flac:0157af38891ede2bec299e4a94e626a3
space2016-12-21d01t14.flac:70696ba3c9713504a7eefbc0612b68c1
space2016-12-21d01t15.flac:7c29e62c485d8c626ad87724f9bdb1fa
space2016-12-21d02t01.flac:f9719647dab9b4e7977cc7116e6877df
space2016-12-21d02t02.flac:2f7e5a443bebeecf7bec42da5cdb0883
space2016-12-21d02t03.flac:132c9fe734b0871948192e9c2d71784a
space2016-12-21d02t04.flac:c0141b980872654dc9662f32ecbf6c44
space2016-12-21d02t05.flac:f6436833f5ddbabe91b9a5ddc3663cb5
space2016-12-21d02t06.flac:a6c41793fc0ac8785ff02afb6b0b1c23
space2016-12-21d02t07.flac:796e57fd9f583fe61820bf297b699e3c
space2016-12-21d02t08.flac:34d82432c2daf8922ba7b1608c214721
space2016-12-21d02t09.flac:d7a2222a4c554498ce7bf5747feb9efd
space2016-12-21d02t10.flac:fdda8ecfdfa83df449b32a64e7e6e0fb
space2016-12-21d02t11.flac:2dfefb063b9c0e2620bda8e87c7f2d58
space2016-12-21d02t12.flac:e37369d23e3cedccdd21d9af2357d95e
space2016-12-21d02t13.flac:e07fed18e2c291eca1c4267de24d2c0b
space2016-12-21d02t14.flac:7776702a28a48f5fdc82408e3a9b4b6d
space2016-12-21d03t01.flac:00871c335b7297b4d460f4f348e9dfd2
space2016-12-21d03t02.flac:516ffe88676595ef5bb7ccb91a8084ea
space2016-12-21d03t03.flac:501068e4c846cc859531f9c709597f48
space2016-12-21d03t04.flac:fe579ade77925598176ccbef166c9cd8
space2016-12-21d03t05.flac:335766f59b3a1661dd79dccafe22e75c
space2016-12-21d03t06.flac:b3d6a8afc3988e75456b48e815379142
space2016-12-21d03t07.flac:8dc0905ea8db1bebb3ed4853ecee34e1
space2016-12-21d03t08.flac:3389e7fe36d484f8180d6c7a5fc4b326
space2016-12-21d03t09.flac:ac67db94891c104d8cbeb288a32a9d7a
space2016-12-21d03t10.flac:c8ec6e87b4274068306721db7fde746d
space2016-12-21d03t11.flac:7a676ff08b1ba876bb0e7fdcd9621803
space2016-12-21d03t12.flac:ffc00d4924c452497f7788fcb95aa5c7
space2016-12-21d03t13.flac:57373166ee5b5642ab8ca8916fd4672c
space2016-12-21d03t14.flac:21c33b4f7b8768baa7070b5c4f56fc38
space2016-12-21d03t15.flac:b3fd62cadec900e7b9f6b176d5e2b914
space2016-12-21d03t16.flac:0def7764c6d2603b183294386cc9ebae
space2016-12-21d03t17.flac:8ba873e2153dffa10429c375ec04dea5
space2016-12-21d03t18.flac:cbe1926b5bc9231e427024732c9cc297
space2016-12-21d03t19.flac:d8f2f434abe7d3368dd9f2b6e7d52837
space2016-12-21d03t20.flac:6edf84d90cbc508cdc41728ef8aec43f
space2016-12-21d03t21.flac:7f15d939a0f7db703a9bd914ff6295c7

length     expanded size    cdr  WAVE problems  fmt   ratio  filename
     0:16.63        2970620 B   ---   --   ---xx   flac  0.3679  space2016-12-21d01t01.flac
     5:36.00       59270444 B   ---   --   ---xx   flac  0.5141  space2016-12-21d01t02.flac
     3:21.07       35472908 B   ---   --   ---xx   flac  0.5134  space2016-12-21d01t03.flac
     2:58.52       31521548 B   ---   --   ---xx   flac  0.5606  space2016-12-21d01t04.flac
     2:43.04       28762652 B   ---   --   ---xx   flac  0.3923  space2016-12-21d01t05.flac
     8:08.26       86144396 B   ---   --   ---xx   flac  0.5294  space2016-12-21d01t06.flac
     5:15.11       55591916 B   ---   --   ---xx   flac  0.4781  space2016-12-21d01t07.flac
     4:20.27       45927548 B   ---   --   ---xx   flac  0.3692  space2016-12-21d01t08.flac
     5:49.27       61627148 B   ---   --   ---xx   flac  0.4080  space2016-12-21d01t09.flac
     9:07.70       96655484 B   ---   --   ---xx   flac  0.5249  space2016-12-21d01t10.flac
     1:50.18       19446380 B   ---   --   ---xx   flac  0.2899  space2016-12-21d01t11.flac
     4:29.47       47562188 B   ---   --   ---xx   flac  0.4643  space2016-12-21d01t12.flac
     5:28.05       57871004 B   ---   --   ---xx   flac  0.3915  space2016-12-21d01t13.flac
     4:25.56       46877756 B   ---   --   ---xx   flac  0.5854  space2016-12-21d01t14.flac
     4:15.59       45120812 B   ---   --   ---xx   flac  0.3289  space2016-12-21d01t15.flac
     0:23.40        4151324 B   ---   --   ---xx   flac  0.3676  space2016-12-21d02t01.flac
     9:54.71      104948636 B   ---   --   ---xx   flac  0.3686  space2016-12-21d02t02.flac
     1:32.31       16301756 B   ---   --   ---xx   flac  0.3543  space2016-12-21d02t03.flac
     2:35.21       27391436 B   ---   --   ---xx   flac  0.4654  space2016-12-21d02t04.flac
     4:59.66       52898876 B   ---   --   ---xx   flac  0.4518  space2016-12-21d02t05.flac
     3:14.69       34383932 B   ---   --   ---xx   flac  0.4648  space2016-12-21d02t06.flac
     2:34.54       27292652 B   ---   --   ---xx   flac  0.3150  space2016-12-21d02t07.flac
     6:15.38       66239420 B   ---   --   ---xx   flac  0.5198  space2016-12-21d02t08.flac
     8:27.67       89592428 B   ---   --   ---xx   flac  0.5253  space2016-12-21d02t09.flac
     6:51.13       72531020 B   ---   --   ---xx   flac  0.5573  space2016-12-21d02t10.flac
     5:18.08       56114060 B   ---   --   ---xx   flac  0.5641  space2016-12-21d02t11.flac
     2:17.00       24166844 B   ---   --   ---xx   flac  0.3374  space2016-12-21d02t12.flac
     5:50.00       61740044 B   ---   --   ---xx   flac  0.5144  space2016-12-21d02t13.flac
     1:52.08       19775660 B   ---   --   ---xx   flac  0.3490  space2016-12-21d02t14.flac
     2:31.69       26798732 B   ---   --   ---xx   flac  0.3963  space2016-12-21d03t01.flac
     3:41.62       39130268 B   ---   --   ---xx   flac  0.4180  space2016-12-21d03t02.flac
     4:04.18       43083980 B   ---   --   ---xx   flac  0.3903  space2016-12-21d03t03.flac
     3:23.32       35884508 B   ---   --   ---xx   flac  0.4618  space2016-12-21d03t04.flac
     5:05.17       53842028 B   ---   --   ---xx   flac  0.3951  space2016-12-21d03t05.flac
     1:18.57       13893308 B   ---   --   ---xx   flac  0.3222  space2016-12-21d03t06.flac
     4:35.01       48512396 B   ---   --   ---xx   flac  0.5198  space2016-12-21d03t07.flac
     3:25.01       36164396 B   ---   --   ---xx   flac  0.5162  space2016-12-21d03t08.flac
     7:50.30       82978604 B   ---   --   ---xx   flac  0.5409  space2016-12-21d03t09.flac
     5:18.45       56201084 B   ---   --   ---xx   flac  0.5296  space2016-12-21d03t10.flac
     6:09.62       65237468 B   ---   --   ---xx   flac  0.5573  space2016-12-21d03t11.flac
     0:56.07        9894908 B   ---   --   ---xx   flac  0.4609  space2016-12-21d03t12.flac
     0:49.60        8784764 B   ---   --   ---xx   flac  0.5392  space2016-12-21d03t13.flac
     0:37.42        6625628 B   ---   --   ---xx   flac  0.5343  space2016-12-21d03t14.flac
     0:40.71        7223036 B   ---   --   ---xx   flac  0.5050  space2016-12-21d03t15.flac
     0:36.08        6369260 B   ---   --   ---xx   flac  0.5423  space2016-12-21d03t16.flac
     0:52.25        9231644 B   ---   --   ---xx   flac  0.6254  space2016-12-21d03t17.flac
     0:53.30        9419804 B   ---   --   ---xx   flac  0.5659  space2016-12-21d03t18.flac
     0:40.06        7070156 B   ---   --   ---xx   flac  0.5361  space2016-12-21d03t19.flac
     4:13.43       44730380 B   ---   --   ---xx   flac  0.5621  space2016-12-21d03t20.flac
     1:19.05       13947404 B   ---   --   ---xx   flac  0.3575  space2016-12-21d03t21.flac
   189:16.74     2003374648 B                            0.4742  (50 files)

















More information about the bittorrent mailing list