[bittorrent] gd1978-04-15 Williamsburg.VA.sbd msc.happyjack.Flac16 [New & Better Source To Circulate]

Automated Mailer noreply-bt.e at etree.org
Fri Dec 23 16:53:11 UTC 2016


Band:           Grateful Dead
Torrent Name:   gd1978-04-15 Williamsburg.VA.sbd msc.happyjack.Flac16  [New & Better Source To Circulate]
Uploaded by:    dedhed69
DB Link:        
Details:        http://bt.etree.org/details.php?id=590473

Contact the seeder at http://db.etree.org/dedhed69

If the link to this show does not work, it was probably removed for
being non-trade-friendly.

Description / text file:
-------------------------

NEW & BETTER SOURCE TO CIRCULATION

GRATEFUL DEAD
College of William & Mary 
William & Mary Hall
Williamsburg, VA.
April 15 1978  [Saturday at 8 pm]

     A Gratefully Little Deadicated Feat Recording 
[Happy Jack's Masters Cassette Analog Collection #2]
 *** 16 Bit Version *** 1st TIME IN CIRCULATION 

Tapers: Friend & Happy Jack
All Transfering, Mastering & Editing by Happy Jack [aka; dedhed69] 12/2016

Source: sbd
Location. We were on stage left patched into the mixingboard with Left/Right rca plugs. My friend always carried a long patch chord to be away from others. Most of the time stage left

Lineage: mixingboard [Line out Left/Right] > d5 [Line In recording level 5. No Dolbly] > MASTER Cassettes [Maxell XLII90]

For The Clones
All Master tapes [were synced] - on a Aiwa CX-NA555 [using Maxell XLll 90 Type ll with High (CrO2 Tape OFF] NO Dolby was used. Unless specifically marked on tape 

Tape Transfer: Sharp RT100 Deck [Master Cassette, Maxell XLII 90] > Sony PCM-M10 > Scandisc Ultra MicroSD 8gb [class 10] on 12/22/2016
Settings: Sharp RT100 Deck: Dolby NR - OFF & CrO2 - OFF
Settings: Sony PCM-M10 manual record level at 6
Recording Mode: LPCM [wav] 96.00kHz/24bit

Recording Transfer: Sony PCM-M10 [ SanDisk Ultra [MicroSDHC] 8gb (class10)] > my Laptob HD by way of USB > 96.00kHz/24bit wav 

Mastering & Editing: 96.00kHz/24bit wav > AA3 was used for +/- db gains, fade ins & outs. No music was altered, Touched and/or NORMALIZED

Converting Sample Rate: Adobe Audition 3.0 was also used to to convert 96.00kHz/24bit.WAV to sample rate to 44.10kHz/16bit with High Qulaity at 100%, Pre Post Filter checked, Dither enabled, Dither Depth at 1, P.D.F set to Triangular and No Noise Shaping. 

CD Wave Editor to Split Tracks & covert to Flac16 [Level 6]
TLH to fix SBE

Set 2  [Only]
01. Tuning & Banter
02. Bertha > Good Lovin'
03. Candyman
04. Sunrise >
05. Playing In The Band > Jam 
06. Drums @ >
07. Drums > Not Fade Away > Jam
08. Morning Dew
09. Around And Around
10. Encore
11. One More Saturday Night > Jam > One More Saturday Night  @

Show Notes
One of the BEST NOT FADE AWAY  MORNING DEW COMBOS
Some Awesome Jams
Great 2nd set

Band Memberes
Jerry Garcia - guitar & vocals
Bob Weir - guitar & vocals
Bill Kreutzmann - drums
Phil Lesh - bass
Mickey Hart - percussion 
Keith Godchaux - keyboards & vocals
Donna Godchaux - backing vocals
 
Source Notes
@ - tape flip [about less then a minute. Transition is smoothless
@ - Tape ends. cut the song about mabey a minute or less left
By the sounds of my ears & markings on tape this is the master. 
UNFORTUNTLEY I only had the 2nd set of this great show. The rest stolen. 

SUPPORT THE ARTIST
http://www.dead.net/
Buy there Music. Go See Them LIVE !!

WE WERE ON TIME FOR THE PATCH WHICH IS A 1ST. LMAO !! THIS WAS A GREAT SHOW. ONE OF THE BETTER SOUNDING PATCHES BUT STILL  A NICE WARM SOUND. 


Happy Jack Final Notes
*** Thanks to my friend for the great times taping from 77-90
I will go with this as being the MASTER cassette. The rest has been stolen along with many others while I was in the Hospital for Spinal Bacteria Meningitas. The  good news there r about 75 tapes still in my possesion.
added md5
added ffp
added shn tool.len text

DO NOT SELL !!!!

ENJOY/SHARE WITH FAMILY & FRIENDS [That you trust & just loves the music]

Happy Jack
Please beware of us old school tapers who may have lost the tolerance for being disrespected! After so many years how many end up asking for a show!!!
Please Be Kind

MD5
d87d19f08c7db3aab08c8534d0409f74 *gd1978-04-15 Williamsburg,VA. Track01. Tuning  Banter-fixed.flac
efc937f03fff663813e8fb360d1b1686 *gd1978-04-15 Williamsburg,VA. Track02. Bertha  Good Lovin-fixed.flac
1138d540b670fc483e9dfd83c42a5dfd *gd1978-04-15 Williamsburg,VA. Track03. Candyman-fixed.flac
9fdfd845ada4c22ac6b3d1a299207fe4 *gd1978-04-15 Williamsburg,VA. Track04. Sunrise-fixed.flac
6479994757fb0657e9f43f63394f4044 *gd1978-04-15 Williamsburg,VA. Track05. Playing In The Band Jam-fixed.flac
03f8355ac2b22a5da8f3526749e88e37 *gd1978-04-15 Williamsburg,VA. Track06. Drums-fixed.flac
e73ae59bc921e46edeb6c7319b11d11f *gd1978-04-15 Williamsburg,VA. Track07. Drums  Not Fade Away Jam-fixed.flac
c4a79a03787bc43a07925866ea2017e5 *gd1978-04-15 Williamsburg,VA. Track08. Morning Dew-fixed.flac
b3fbcf668629cc80a969898d8d18b30b *gd1978-04-15 Williamsburg,VA. Track09. Around And Around-fixed.flac
432d681f6eb4583386d2c59c06ad0cdb *gd1978-04-15 Williamsburg,VA. Track10. Encore-fixed.flac
db7df2381d9d92734908d2e885e9e303 *gd1978-04-15 Williamsburg,VA. Track11. One More Saturday Night-fixed.flac

    length     expanded size    cdr  WAVE problems  fmt   ratio  filename
     1:03.59       11252012 B   ---   --   ---xx   flac  0.4756  gd1978-04-15 Williamsburg,VA. Track01. Tuning  Banter-fixed.flac
    14:11.10      150139964 B   ---   --   ---xx   flac  0.5591  gd1978-04-15 Williamsburg,VA. Track02. Bertha  Good Lovin-fixed.flac
    10:09.50      107545244 B   ---   --   ---xx   flac  0.5429  gd1978-04-15 Williamsburg,VA. Track03. Candyman-fixed.flac
     3:46.48       39979340 B   ---   --   ---xx   flac  0.5437  gd1978-04-15 Williamsburg,VA. Track04. Sunrise-fixed.flac
    14:14.46      150753836 B   ---   --   ---xx   flac  0.5625  gd1978-04-15 Williamsburg,VA. Track05. Playing In The Band Jam-fixed.flac
     4:21.27       46103948 B   ---   --   ---xx   flac  0.5370  gd1978-04-15 Williamsburg,VA. Track06. Drums-fixed.flac
    13:32.69      143399132 B   ---   --   ---xx   flac  0.5623  gd1978-04-15 Williamsburg,VA. Track07. Drums  Not Fade Away Jam-fixed.flac
    10:43.72      113594588 B   ---   --   ---xx   flac  0.5540  gd1978-04-15 Williamsburg,VA. Track08. Morning Dew-fixed.flac
     8:02.43       85125980 B   ---   --   ---xx   flac  0.5754  gd1978-04-15 Williamsburg,VA. Track09. Around And Around-fixed.flac
     0:55.63        9850220 B   ---   --   ---xx   flac  0.5098  gd1978-04-15 Williamsburg,VA. Track10. Encore-fixed.flac
     4:18.08       45530060 B   ---   --   ---xx   flac  0.5797  gd1978-04-15 Williamsburg,VA. Track11. One More Saturday Night-fixed.flac
    85:20.45      903274324 B                            0.5568  (11 files)




More information about the bittorrent mailing list