[bittorrent] Sam Burchfield Solo Variety Playhouse Atlanta, Georgia 12/22/2016 (Schoeps CCM4V'S FOB)

Automated Mailer noreply-bt.e at etree.org
Fri Dec 23 14:20:12 UTC 2016


Band:           Other
Torrent Name:   Sam Burchfield Solo Variety Playhouse Atlanta, Georgia 12/22/2016 (Schoeps CCM4V'S FOB)
Uploaded by:    zmanatl
DB Link:        
Details:        http://bt.etree.org/details.php?id=590468

Contact the seeder at http://db.etree.org/zmanatl

If the link to this show does not work, it was probably removed for
being non-trade-friendly.

Description / text file:
-------------------------
Sam Burchfield Solo 
Variety Playhouse
Atlanta, Georgia
12/22/2016 

Source: Schoeps CCM4V's>Lunatec V2>Benchmark AD2K>
Sound Devices 722 (24/44)
FOB/DFC/KFC/ZFC/AARP 60' From Stage, 7' High
DSP: Sound Devices 722>Sound Forge 10.0>CD Wave>flac(16)
ID3 Tagged In Foobar 2000
Recorded By: Z-Man
Seeded By: Z-Man

Disc I 

01 Announcement
02 ?
03 ?
04 Wrestling Me
05 *Been A Long Time
06 ?
07 #Someday
08 #?
09 #The Friend Zone

* With Ms. Wrenn On Vocals
# Sam On Acoustic Guitar

sam2016-12-22d01t01.flac:c0be16b0c40ac421f5621e1b025d321c
sam2016-12-22d01t02.flac:ff8ffe97d93c4fb050c6a5911b67389b
sam2016-12-22d01t03.flac:490cc61cf02e9caa9f9291253be11bd3
sam2016-12-22d01t04.flac:9e3ceb337a06c3f9c1e9cc0868e7fa1d
sam2016-12-22d01t05.flac:3c8a282b3d4e7d4eee3b47b0786a7d66
sam2016-12-22d01t06.flac:27ddae1730b4e7b4d2c2d5a306666e48
sam2016-12-22d01t07.flac:dfd3349d08df2827ea51864d8e9e9247
sam2016-12-22d01t08.flac:ab48f5c5992cc0c30a968f4c62f35a59
sam2016-12-22d01t09.flac:dbe6f2dc1fdd2875cbbc91330c7be399

 length     expanded size    cdr  WAVE problems  fmt   ratio  filename
     0:33.01        5823596 B   ---   --   ---xx   flac  0.3991  sam2016-12-22d01t01.flac
     5:15.50       55683644 B   ---   --   ---xx   flac  0.4373  sam2016-12-22d01t02.flac
     4:28.17       47315228 B   ---   --   ---xx   flac  0.4520  sam2016-12-22d01t03.flac
     4:23.46       46501436 B   ---   --   ---xx   flac  0.4354  sam2016-12-22d01t04.flac
     4:17.45       45440684 B   ---   --   ---xx   flac  0.4573  sam2016-12-22d01t05.flac
     4:54.14       51894572 B   ---   --   ---xx   flac  0.4381  sam2016-12-22d01t06.flac
     5:05.62       53947868 B   ---   --   ---xx   flac  0.4568  sam2016-12-22d01t07.flac
     5:43.62       60651068 B   ---   --   ---xx   flac  0.4736  sam2016-12-22d01t08.flac
     3:31.33       37298060 B   ---   --   ---xx   flac  0.4724  sam2016-12-22d01t09.flac
    38:13.30      404556156 B                            0.4519  (9 files)













More information about the bittorrent mailing list