[bittorrent] Variety Playhouse Atlanta, Georgia 12/22/2016 (Schoeps CCM4V'S FOB)

Automated Mailer noreply-bt.e at etree.org
Fri Dec 23 06:50:04 UTC 2016


Band:           Other
Torrent Name:    Variety Playhouse Atlanta, Georgia 12/22/2016 (Schoeps CCM4V'S FOB)
Uploaded by:    zmanatl
DB Link:        
Details:        http://bt.etree.org/details.php?id=590465

Contact the seeder at http://db.etree.org/zmanatl

If the link to this show does not work, it was probably removed for
being non-trade-friendly.

Description / text file:
-------------------------
David Shaw Solo Acoustic
Variety Playhouse
Atlanta, Georgia
12/22/2016 

Source: Schoeps CCM4V's>Lunatec V2>Benchmark AD2K>
Sound Devices 722 (24/44)
FOB/DFC/KFC/ZFC/AARP 60' From Stage, 7' High
DSP: Sound Devices 722>Sound Forge 10.0>CD Wave>flac(16)
ID3 Tagged In Foobar 2000
Recorded By: Z-Man
Seeded By: Z-Man

Disc I 

01 Introduction By Michael Harris
02 ?
03 Pretty Photograph
04 Keep Going >
05 Banter On Africa Trip
06 Keep Going
07 No Other
08 Up In The Air
09 ?
10 God Damn I Had To Live With

Disc II

01 Banter About Amber
02 Amber
03 Pressure
04 To Love Somebody
05 Wish I Knew You
06 Stand Up
07 Banter About Guitar
08 Shoot You Down 
09 It Was A Sin
10 Banter/Thanks
11 Soulfight
12 Banter/Happy Holidays/Outro

david2016-12-22d01t01.flac:e64326f7c959b6cb636fa3aab50a4401
david2016-12-22d01t02.flac:3d4b5c15e33e6ccf00ac8c7f16bfdef8
david2016-12-22d01t03.flac:dd95a6f9fc1d46bd5e47f977d2ea0133
david2016-12-22d01t04.flac:114420d85c8d63c82cb6e36065ced9f5
david2016-12-22d01t05.flac:0f851ea3f71d70f56cb5364656ad91a8
david2016-12-22d01t06.flac:a4b9b102a91120b282374544dbf0305a
david2016-12-22d01t07.flac:d4f714d636f8547266fbf8002f62611b
david2016-12-22d01t08.flac:8613e8b28ef3f27dd8ced787c4aa6ec0
david2016-12-22d01t09.flac:5ee2ca1c4cf495a1c3cbd1b6b99e7e20
david2016-12-22d01t10.flac:290ca729c5bd502e208f0797a66b4035
david2016-12-22d02t01.flac:6164dda236246f38ab1ee2ee5f19e306
david2016-12-22d02t02.flac:69dff614059c581c5103aeaf81fe3b67
david2016-12-22d02t03.flac:d375af917d21e20b0fc770eed90059ca
david2016-12-22d02t04.flac:c8a4243ea30c06ae07a0d1b3f3f2eb99
david2016-12-22d02t05.flac:b2f2ab882d254868a92a5b1a4c849ea4
david2016-12-22d02t06.flac:1e9a3d81d36b5273bcce0a7de2dced27
david2016-12-22d02t07.flac:a8d5074eaa81216d5a0f9b8a2abd7661
david2016-12-22d02t08.flac:378ba9aea681ff79ee73de574bf5a005
david2016-12-22d02t09.flac:3b5f86c74e30222ac7454d42ae092461
david2016-12-22d02t10.flac:29b14353ff796d9cdaef1be246162d1e
david2016-12-22d02t11.flac:233bfa6238ca046692be71b820462934
david2016-12-22d02t12.flac:d5a763da4ba11bf1cc2c78119776b98e
 
length     expanded size    cdr  WAVE problems  fmt   ratio  filename
     1:51.24       19636892 B   ---   --   ---xx   flac  0.4052  david2016-12-22d01t01.flac
     5:53.02       62273948 B   ---   --   ---xx   flac  0.3797  david2016-12-22d01t02.flac
     5:13.06       55227356 B   ---   --   ---xx   flac  0.3492  david2016-12-22d01t03.flac
     4:34.32       48408908 B   ---   --   ---xx   flac  0.4461  david2016-12-22d01t04.flac
     4:03.17       42905228 B   ---   --   ---xx   flac  0.3281  david2016-12-22d01t05.flac
     3:38.37       38542268 B   ---   --   ---xx   flac  0.4427  david2016-12-22d01t06.flac
     4:35.01       48512396 B   ---   --   ---xx   flac  0.4177  david2016-12-22d01t07.flac
     5:41.19       60197132 B   ---   --   ---xx   flac  0.4827  david2016-12-22d01t08.flac
     7:20.32       77691308 B   ---   --   ---xx   flac  0.4362  david2016-12-22d01t09.flac
     4:03.74       43039292 B   ---   --   ---xx   flac  0.3924  david2016-12-22d01t10.flac
    10:51.57      114970508 B   ---   --   ---xx   flac  0.3324  david2016-12-22d02t01.flac
     4:34.53       48458300 B   ---   --   ---xx   flac  0.4654  david2016-12-22d02t02.flac
     5:22.47       56911388 B   ---   --   ---xx   flac  0.4612  david2016-12-22d02t03.flac
     6:37.45       70136684 B   ---   --   ---xx   flac  0.3980  david2016-12-22d02t04.flac
     6:03.42       64132028 B   ---   --   ---xx   flac  0.5026  david2016-12-22d02t05.flac
     3:58.50       42100844 B   ---   --   ---xx   flac  0.5138  david2016-12-22d02t06.flac
     8:20.09       88221212 B   ---   --   ---xx   flac  0.4128  david2016-12-22d02t07.flac
     4:31.21       47853836 B   ---   --   ---xx   flac  0.3991  david2016-12-22d02t08.flac
     5:05.20       53849084 B   ---   --   ---xx   flac  0.5083  david2016-12-22d02t09.flac
     1:19.60       14076764 B   ---   --   ---xx   flac  0.4181  david2016-12-22d02t10.flac
     7:18.14       77296172 B   ---   --   ---xx   flac  0.4317  david2016-12-22d02t11.flac
     2:47.55       29588204 B   ---   --   ---xx   flac  0.4773  david2016-12-22d02t12.flac
   113:45.42     1204029752 B                            0.4226  (22 files)
 










More information about the bittorrent mailing list