[bittorrent] gd1971-11-12.sbd.miller.sirmick.137396.sbeok.flac16 e

Automated Mailer noreply-bt.e at etree.org
Thu Dec 22 11:54:42 UTC 2016


Band:           Grateful Dead
Torrent Name:   gd1971-11-12.sbd.miller.sirmick.137396.sbeok.flac16 e
Uploaded by:    grateful darkstar
DB Link:        
Details:        http://bt.etree.org/details.php?id=590453

Contact the seeder at http://db.etree.org/grateful darkstar

If the link to this show does not work, it was probably removed for
being non-trade-friendly.

Description / text file:
-------------------------
Grateful Dead
San Antonio Civic Auditorium
San Antonio, TX
11/12/1971



Source: Sbd > master reel (vault) > reel (dick latvala) > dat 48k (rob Eaton)
Transfer: Dat > Sony R500 > Sound Devices 744T > wav 16/48
          transfer by Charlie Miller
Lineage: wav 16/48 > Adobe Audition 3.0.1 > iZotope Ozone 5 Advanced > iZotope RX4 advanced >
         wav 16/44.1 > CD Wave > TLH > Flac 16 




Set I

01   Truckin'
02   Loser
03   Beat It On Down The Line
04   Sugaree
05   chat/tuning
06   Jack Straw
07   Tennessee Jed
08   El//Paso
09   Brown//Eyed Women
10   banter/tuning
11   Mexicali Blues
12   Black Peter
13   One More Saturday Night


Set II:

01   Ramble On Rose
02   Me And My Uncle
03   Cryptical Envelopment >
04   Drums >
05   The Other One >
06   Cryptical Envelopment >
07   Big Railroad Blues
08   Sugar Magnolia
09   Casey Jones
10   Johnny B. Goode


Comments:

This is one of the few shows where the 1st set was longer than the 2nd.  It seems that they just ran out of time.


Notes:

- DC Offset removed.
- Set I had a major problem with dropouts, most of which occured in the left channel. The larger ones have been d/w
  by copying the right channel over to the left. I have also repaired a significant number of partial dropouts.
- There are two small sections in El Paso that could not be fixed, so the parts have been spliced together.
- Brown Eyed Women is missing 2 to 3 seconds just after it starts.
- Some level adjustments have been made.
- Pitch correction.


Thanks to Rob Eaton and Charlie Miller


edited and mastered
SIRMick
December 2016


shntool output:

    length     expanded size    cdr  WAVE problems  fmt   ratio  filename
     9:21.67       99118028 B   ---   --   ---xx   flac  0.4884  gd1971-11-12s1t01.flac
     6:43.40       71183324 B   ---   --   ---xx   flac  0.4802  gd1971-11-12s1t02.flac
     3:21.37       35543468 B   ---   --   ---xx   flac  0.4965  gd1971-11-12s1t03.flac
     6:32.55       69278204 B   ---   --   ---xx   flac  0.4780  gd1971-11-12s1t04.flac
     1:13.24       12933692 B   ---   --   ---xx   flac  0.3904  gd1971-11-12s1t05.flac
     5:32.42       58663628 B   ---   --   ---xx   flac  0.4695  gd1971-11-12s1t06.flac
     7:26.38       78763820 B   ---   --   ---xx   flac  0.4861  gd1971-11-12s1t07.flac
     4:49.21       51029036 B   ---   --   ---xx   flac  0.3418  gd1971-11-12s1t08.flac
     4:23.00       46393244 B   ---   --   ---xx   flac  0.4790  gd1971-11-12s1t09.flac
     1:12.24       12757292 B   ---   --   ---xx   flac  0.4188  gd1971-11-12s1t10.flac
     3:38.14       38488172 B   ---   --   ---xx   flac  0.5296  gd1971-11-12s1t11.flac
     9:08.59       96806012 B   ---   --   ---xx   flac  0.4893  gd1971-11-12s1t12.flac
     4:54.19       51906332 B   ---   --   ---xx   flac  0.5264  gd1971-11-12s1t13.flac
     6:12.55       65750204 B   ---   --   ---xx   flac  0.5208  gd1971-11-12s2t01.flac
     3:12.21       33918236 B   ---   --   ---xx   flac  0.5279  gd1971-11-12s2t02.flac
     2:00.31       21240956 B   ---   --   ---xx   flac  0.4679  gd1971-11-12s2t03.flac
     2:42.14       28609772 B   ---   --   ---xx   flac  0.4649  gd1971-11-12s2t04.flac
    21:22.67      226302428 B   ---   --   ---xx   flac  0.5046  gd1971-11-12s2t05.flac
     5:29.57       58169708 B   ---   --   ---xx   flac  0.4901  gd1971-11-12s2t06.flac
     3:47.25       40101644 B   ---   --   ---xx   flac  0.5251  gd1971-11-12s2t07.flac
     6:25.64       68064572 B   ---   --   ---xx   flac  0.5249  gd1971-11-12s2t08.flac
     6:16.21       66375836 B   ---   --   ---xx   flac  0.5024  gd1971-11-12s2t09.flac
     4:11.31       44349356 B   ---   --   ---xx   flac  0.5207  gd1971-11-12s2t10.flac
   129:59.01     1375746964 B                            0.4911  (23 files)






More information about the bittorrent mailing list