[bittorrent] gd1983-04-17 Meadowlands.NJ.sbd.msc.happyjack.Flac16 [New Source to Circulation]

Automated Mailer noreply-bt.e at etree.org
Thu Dec 22 05:55:54 UTC 2016


Band:           Grateful Dead
Torrent Name:   gd1983-04-17 Meadowlands.NJ.sbd.msc.happyjack.Flac16  [New Source to Circulation]
Uploaded by:    dedhed69
DB Link:        
Details:        http://bt.etree.org/details.php?id=590452

Contact the seeder at http://db.etree.org/dedhed69

If the link to this show does not work, it was probably removed for
being non-trade-friendly.

Description / text file:
-------------------------

NEW SOURCE TO CIRCULATION

GRATEFUL DEAD
Meadowlands Arena
East Rutherford, New Jersey
April 17, 1983 - Sunday

     A Gratefully Little Deadicated Feat Recording 
[Happy Jack's Masters Cassette Analog Collection #1]
 *** 16 Bit Version *** 1st TIME IN CIRCULATION 

Taping: Friend & Happy Jack
All Transfering, Mastering & Editing by Happy Jack [aka; dedhed69] 12/2016

Source: sbd
Location. I think we were on stage left patched into the mixingboard. My friend always carried a long patch chord so we were to ourselves. 
Lineage: mixingboard > d5 [recording level 4.5. No Dolbly] > MASTER Cassettes [Maxell XLII90]

For The Clones
All Dubbed Master tapes in1988-1990 [were synced] - on a Aiwa CX-NA555 [using Maxell XLll 90 Type ll with High (CrO2 Tape OFF] NO Dolby was used. Unless specifically marked 

Tape Transfer: Sharp RT100 Deck > Sony PCM-M10 > Scandisc Ultra MicroSD 8gb [class 10] on 12/19/2016
Settings: Sharp RT100 Deck: Dolby NR - OFF & CrO2 - OFF
Settings: Sony PCM-M10 manual record level at 5
Recording Mode: LPCM [wav] 96.00kHz/24bit

Recording Transfer: Sony PCM-M10 [ SanDisk Ultra [MicroSDHC] 8gb (class10)] > my Laptob HD by way of USB > 96.00kHz/24bit wav 

Mastering & Editing: 96.00kHz/24bit wav > AA3 was used for +/- db gains, fade ins & outs. No music was altered ot Touched.

Converting Sample Rate: Adobe Audition 3.0 was also used to to convert 96.00kHz/24bit.WAV to sample rate to 44.10kHz/16bit with High Qulaity at 100%, Pre Post Filter checked, Dither enabled, Dither Depth at 1, P.D.F set to Triangular and No Noise Shaping. 

CD Wave Editor To Split Tracks & converted to Flac16 [Level 6]
TLH to fix SBE

Set 1:

01. Touch Of Grey >
02. Little Red Rooster
03. Dupree's Diamond Blues
04. Beat It On Down The Line
05. It Must Have Been The Roses
06. Cassidy > jam > Cassidy
07. Big Rail Road Blues *
08. My Brother Easu
09. Peggy-O
10. Let It Grow >
11. Might As Well 

Set Break

Set 2:

01..Tuning >
      Help On The Way >Slipknot! > Franklin's Tower ^

Show Notes
My first Brother Esau - first actual performance 3/25/1983
Great Long 1st Set 

Band Memberes
Jerry Garcia - guitar & vocals
Bob Weir - guitar & vocals
Bill Kreutzmann - drums
Phil Lesh - bass
Mickey Hart - percussion 
Brent Mydland - keyboards & vocals

Source Notes
* - Tape Flip [No Music was lost]
^ - cuts out of tape about 3 minutes into Franklin'
By the sounds of my ears I think this may be the clone of the master. We dubbed every recording as a backup in the old days
This is all I had left of this show. The rest stolen. I did not fade out the end of the 2nd set in case anyone wants to use it for patching.

SUPPORT THE ARTIST
http://www.dead.net/
Buy there Music. Go See Them LIVE !!

I REALY ENJOYED THIS SHOW & SET LIST. THE PATCH WAS GOOD. BUT WE NEVER GET STARTED ON TIME. LOLS

Happy Jack Final Notes
*** Thanks to my friend for the great times taping from 77-90
I will go with this as being the clone of our original MASTER cassette due to I seem to hear some tape noise. The rest has been stolen along with many others while I was in the Hospital for Spinal Bacteria Meningitas. The  good news there r about 75 tapes still here
added md5
added ffp
added shn tool.len text

DO NOT SELL !!!!

ENJOY/SHARE WITH FAMILY & FRIENDS [That you trust & just loves the music]

Happy Jack
Please beware of us old school tapers who may have lost the tolerance for being disrespected! After so many years how many end up asking for a show!!!
Please Be Kind

md5
ed9966d549f7786b1be645a0f86d2759 *gd1983-04-17 Meadowlands.Set1Track 01-fixed.flac
b3a891bda6c6a0cc9587b23dca9801ff *gd1983-04-17 Meadowlands.Set1Track 02-fixed.flac
dc66ea445abb2fcb4fb230027ef5b84a *gd1983-04-17 Meadowlands.Set1Track 03-fixed.flac
4f98c254baf8e04acee0f42a309474e4 *gd1983-04-17 Meadowlands.Set1Track 04-fixed.flac
839aa4a0856827986c87d8e5cfd95316 *gd1983-04-17 Meadowlands.Set1Track 05-fixed.flac
690125bb4d36dcfca12b0882324b48e6 *gd1983-04-17 Meadowlands.Set1Track 06-fixed.flac
71ca8b3c1fb805c0638fdf418505f7cc *gd1983-04-17 Meadowlands.Set1Track 07-fixed.flac
cb97d54304c9db40ffbe3b720d285ba3 *gd1983-04-17 Meadowlands.Set1Track 08-fixed.flac
82d51ad74cfb848a59d2baf43872c35b *gd1983-04-17 Meadowlands.Set1Track 09-fixed.flac
1b71f591d1a0adbf4dd9cb799e4c7a01 *gd1983-04-17 Meadowlands.Set1Track 10-fixed.flac
6c57da729bd97c03daf8807165d9cb41 *gd1983-04-17 Meadowlands.Set1Track 11-fixed.flac
cd827a9a0c3f9a2f056373ef0a796988 *gd1983-04-17 Meadowlands.Set2Track 01-fixed.flac

    length     expanded size    cdr  WAVE problems  fmt   ratio  filename
     6:05.35       64468364 B   ---   --   ---xx   flac  0.5434  gd1983-04-17 Meadowlands.Set1Track 01-fixed.flac
    10:30.30      111202604 B   ---   --   ---xx   flac  0.4928  gd1983-04-17 Meadowlands.Set1Track 02-fixed.flac
     6:29.57       68753708 B   ---   --   ---xx   flac  0.5317  gd1983-04-17 Meadowlands.Set1Track 03-fixed.flac
     3:32.44       37500332 B   ---   --   ---xx   flac  0.5499  gd1983-04-17 Meadowlands.Set1Track 04-fixed.flac
     5:16.39       55834172 B   ---   --   ---xx   flac  0.5442  gd1983-04-17 Meadowlands.Set1Track 05-fixed.flac
     6:20.12       67060268 B   ---   --   ---xx   flac  0.5483  gd1983-04-17 Meadowlands.Set1Track 06-fixed.flac
     5:21.46       56732636 B   ---   --   ---xx   flac  0.5796  gd1983-04-17 Meadowlands.Set1Track 07-fixed.flac
     5:18.35       56177564 B   ---   --   ---xx   flac  0.5640  gd1983-04-17 Meadowlands.Set1Track 08-fixed.flac
     8:08.73       86254940 B   ---   --   ---xx   flac  0.5581  gd1983-04-17 Meadowlands.Set1Track 09-fixed.flac
    13:28.43      142632380 B   ---   --   ---xx   flac  0.6017  gd1983-04-17 Meadowlands.Set1Track 10-fixed.flac
     4:29.62       47597468 B   ---   --   ---xx   flac  0.5979  gd1983-04-17 Meadowlands.Set1Track 11-fixed.flac
    14:56.40      158148524 B   ---   --   ---xx   flac  0.5803  gd1983-04-17 Meadowlands.Set2Track 01-fixed.flac
    89:58.66      952362960 B                            0.5596  (12 files)





More information about the bittorrent mailing list