[bittorrent] gd1983-04-17 Meadowlands.NJ.sbd.msc.happyjack.Flac24 [New Source]

Automated Mailer noreply-bt.e at etree.org
Thu Dec 22 05:50:35 UTC 2016


Band:           Grateful Dead
Torrent Name:   gd1983-04-17 Meadowlands.NJ.sbd.msc.happyjack.Flac24  [New Source]
Uploaded by:    dedhed69
DB Link:        
Details:        http://bt.etree.org/details.php?id=590451

Contact the seeder at http://db.etree.org/dedhed69

If the link to this show does not work, it was probably removed for
being non-trade-friendly.

Description / text file:
-------------------------

NEW SOURCE TO CIRCULATION

GRATEFUL DEAD
Meadowlands Arena
East Rutherford, New Jersey
April 17, 1983 - Sunday

     A Gratefully Little Deadicated Feat Recording 
[Happy Jack's Masters Cassette Analog Collection #1]
 *** 24 Bit Version *** 1st TIME IN CIRCULATION 

Taping: Friend & Happy Jack
All Transfering, Mastering & Editing by Happy Jack [aka; dedhed69] 12/2016

Source: sbd
Location. I think we were on stage left patched into the mixingboard. My friend always carried a long patch chord so we were to ourselves. 
Lineage: mixingboard > d5 [recording level 4.5. No Dolbly] > MASTER Cassettes [Maxell XLII90]

For The Clones
All Dubbed Master tapes in1988-1990 [were synced] - on a Aiwa CX-NA555 [using Maxell XLll 90 Type ll with High (CrO2 Tape OFF] NO Dolby was used. Unless specifically marked 

Tape Transfer: Sharp RT100 Deck > Sony PCM-M10 > Scandisc Ultra MicroSD 8gb [class 10] on 12/19/2016
Settings: Sharp RT100 Deck: Dolby NR - OFF & CrO2 - OFF
Settings: Sony PCM-M10 manual record level at 5
Recording Mode: LPCM [wav] 96.00kHz/24bit

Recording Transfer: Sony PCM-M10 [ SanDisk Ultra [MicroSDHC] 8gb (class10)] > my Laptob HD by way of USB > 96.00kHz/24bit wav 

Mastering & Editing: 96.00kHz/24bit wav > AA3 was used for +/- db gains, fade ins & outs. No music was altered ot Touched.

CD Wave Editor to Split Tracks & covert to Flac24 [Level 6]

Set 1:

01. Touch Of Grey >
02. Little Red Rooster
03. Dupree's Diamond Blues
04. Beat It On Down The Line
05. It Must Have Been The Roses
06. Cassidy > jam > Cassidy
07. Big Rail Road Blues *
08. My Brother Easu
09. Peggy-O
10. Let It Grow >
11. Might As Well 

Set Break

Set 2:

01..Tuning >
      Help On The Way >Slipknot! > Franklin's Tower ^

Show Notes
My first Brother Esau - first actual performance 3/25/1983
Great Long 1st Set 

Band Memberes
Jerry Garcia - guitar & vocals
Bob Weir - guitar & vocals
Bill Kreutzmann - drums
Phil Lesh - bass
Mickey Hart - percussion 
Brent Mydland - keyboards & vocals

Source Notes
* - Tape Flip [No Music was lost]
^ - cuts out of tape about 3 minutes into Franklin'
By the sounds of my ears I think this may be the clone of the master. We dubbed every recording as a backup in the old days
This is all I had left of this show. The rest stolen. I did not fade out the end of the 2nd set in case anyone wants to use it for patching.

SUPPORT THE ARTIST
http://www.dead.net/
Buy there Music. Go See Them LIVE !!

I REALY ENJOYED THIS SHOW & SET LIST. THE PATCH WAS GOOD. BUT WE NEVER GET STARTED ON TIME. LOLS

Happy Jack Final Notes
*** Thanks to my friend for the great times taping from 77-90
I will go with this as being the clone of our original MASTER cassette due to I seem to hear some tape noise. The rest has been stolen along with many others while I was in the Hospital for Spinal Bacteria Meningitas. The  good news there r about 75 tapes still here
added md5
added ffp
added shn tool.len text

DO NOT SELL !!!!

ENJOY/SHARE WITH FAMILY & FRIENDS [That you trust & just loves the music]

Happy Jack
Please beware of us old school tapers who may have lost the tolerance for being disrespected! After so many years how many end up asking for a show!!!
Please Be Kind

md5
e1bcbd2df8a5bd3736b653e9bb02d6d2 *gd1983-04-17 Meadowlands.Set1Track 01.flac
eaae43edc88598eda52785519103a093 *gd1983-04-17 Meadowlands.Set1Track 02.flac
216f09e4a1d96997d79cb053d5fe1987 *gd1983-04-17 Meadowlands.Set1Track 03.flac
3ea67b281e91ee8253717389c70af726 *gd1983-04-17 Meadowlands.Set1Track 04.flac
df0f89a574ec77b8ad037fa1808977b1 *gd1983-04-17 Meadowlands.Set1Track 05.flac
2d50bbf9234d2831c4674ca5c514973d *gd1983-04-17 Meadowlands.Set1Track 06.flac
ce011df09f6958595f994db9ed98cbe5 *gd1983-04-17 Meadowlands.Set1Track 07.flac
b54da5cfa434a5c5a4e52ec4a8084194 *gd1983-04-17 Meadowlands.Set1Track 08.flac
321d04566399de1f8b84a62a78e44c1b *gd1983-04-17 Meadowlands.Set1Track 09.flac
50179d7f9fd63ba7da10711720405740 *gd1983-04-17 Meadowlands.Set1Track 10.flac
b64512f953d741b507a3bd39528358fa *gd1983-04-17 Meadowlands.Set1Track 11.flac
c10fc5eb637302165fc0fd0d6f489312 *gd1983-04-17 Meadowlands.Set2Track 01.flac

    length     expanded size    cdr  WAVE problems  fmt   ratio  filename
     6:05.467     210508844 B   cxx   --   ---xx   flac  0.6039  gd1983-04-17 Meadowlands.Set1Track 01.flac
    10:30.400     363110444 B   cxx   --   ---xx   flac  0.5733  gd1983-04-17 Meadowlands.Set1Track 02.flac
     6:29.760     224501804 B   cxx   --   ---xx   flac  0.5928  gd1983-04-17 Meadowlands.Set1Track 03.flac
     3:32.587     122449964 B   cxx   --   ---xx   flac  0.5981  gd1983-04-17 Meadowlands.Set1Track 04.flac
     5:16.520     182315564 B   cxx   --   ---xx   flac  0.5968  gd1983-04-17 Meadowlands.Set1Track 05.flac
     6:20.160     218972204 B   cxx   --   ---xx   flac  0.5981  gd1983-04-17 Meadowlands.Set1Track 06.flac
     5:21.613     185249324 B   cxx   --   ---xx   flac  0.6097  gd1983-04-17 Meadowlands.Set1Track 07.flac
     5:18.467     183436844 B   cxx   --   ---xx   flac  0.6065  gd1983-04-17 Meadowlands.Set1Track 08.flac
     8:08.973     281648684 B   cxx   --   ---xx   flac  0.6039  gd1983-04-17 Meadowlands.Set1Track 09.flac
    13:28.573     465738284 B   cxx   --   ---xx   flac  0.6211  gd1983-04-17 Meadowlands.Set1Track 10.flac
     4:29.827     155420204 B   cxx   --   ---xx   flac  0.6200  gd1983-04-17 Meadowlands.Set1Track 11.flac
    14:56.526     516398954 B   cxx   --   ---xx   flac  0.6135  gd1983-04-17 Meadowlands.Set2Track 01.flac
    89:58.873    3109751118 B                            0.6039  (12 files)





More information about the bittorrent mailing list