[bittorrent] The Revivalists Radio 105.7 404 Christmas Atlantic Station Atlanta, Georgia 12/18/2016 (Schoeps CCM4V'S FOB)

Automated Mailer noreply-bt.e at etree.org
Wed Dec 21 21:31:39 UTC 2016


Band:           Other
Torrent Name:   The Revivalists Radio 105.7 404 Christmas Atlantic Station Atlanta, Georgia 12/18/2016 (Schoeps CCM4V'S FOB)
Uploaded by:    zmanatl
DB Link:        
Details:        http://bt.etree.org/details.php?id=590448

Contact the seeder at http://db.etree.org/zmanatl

If the link to this show does not work, it was probably removed for
being non-trade-friendly.

Description / text file:
-------------------------
The Revivalists
Radio 105.7 404 Christmas
Atlantic Station
Atlanta, Georgia
12/18/2016 

Source: Schoeps CCM4V's>Lunatec V2>Benchmark AD2K>
Sound Devices 722 (24/44)
FOB/DFC/KFC/ZFC/AARP 35' From Stage, 7' High
DSP: Sound Devices 722>Sound Forge 10.0>CD Wave>flac(16)
ID3 Tagged In Foobar 2000
Recorded By: Z-Man
Seeded By: Z-Man

Disc I 

01 Announcements And Introductin By Allie From 105.7 
02 Keep Going 
03 Monster
04 Fade Away >
05 Move On
06 Up In The Air >
07 Catching Fireflies
08 Need You >
09 All In The Family
10 It Was A Sin >
11 Criminal 
12 Wish I Knew You 

therevivalists2016-12-18d01t01.flac:467a0a9a5c7da404f6659b40a5b07018
therevivalists2016-12-18d01t02.flac:4eca14c1e92a7b608429c33e04778cc0
therevivalists2016-12-18d01t03.flac:f060bea233b360f5967f78b92563d840
therevivalists2016-12-18d01t04.flac:471ff39776485a2b7a00d8323a8e3728
therevivalists2016-12-18d01t05.flac:22e35e728cd76a7b409e8293faf02102
therevivalists2016-12-18d01t06.flac:9c39d537973d26a88ecc2a15305b132a
therevivalists2016-12-18d01t07.flac:8d4490e9eca33d39a6d135bce3fbe078
therevivalists2016-12-18d01t08.flac:638f2601fcc3e2cdfc873f3c2aadd191
therevivalists2016-12-18d01t09.flac:ed4332eb7d6c67685dc8ef8db16f26f5
therevivalists2016-12-18d01t10.flac:aba377cedb35d357ebd2ca4d8c8a7783
therevivalists2016-12-18d01t11.flac:cac09e052710f10cbfe7d1b269ae8e6f
therevivalists2016-12-18d01t12.flac:0e91efa8657a22be73504332c35c96a6

 length     expanded size    cdr  WAVE problems  fmt   ratio  filename
     2:31.10       26659964 B   ---   --   ---xx   flac  0.3625  therevivalists2016-12-18d01t01.flac
     5:15.51       55685996 B   ---   --   ---xx   flac  0.4924  therevivalists2016-12-18d01t02.flac
     4:28.25       47334044 B   ---   --   ---xx   flac  0.5192  therevivalists2016-12-18d01t03.flac
     6:00.11       63529916 B   ---   --   ---xx   flac  0.4847  therevivalists2016-12-18d01t04.flac
     3:44.10       39537164 B   ---   --   ---xx   flac  0.5079  therevivalists2016-12-18d01t05.flac
     5:00.03       52927100 B   ---   --   ---xx   flac  0.4647  therevivalists2016-12-18d01t06.flac
     8:10.51       86555996 B   ---   --   ---xx   flac  0.5282  therevivalists2016-12-18d01t07.flac
     4:19.07       45704108 B   ---   --   ---xx   flac  0.3995  therevivalists2016-12-18d01t08.flac
     5:24.14       57186572 B   ---   --   ---xx   flac  0.5051  therevivalists2016-12-18d01t09.flac
     4:28.60       47416364 B   ---   --   ---xx   flac  0.4771  therevivalists2016-12-18d01t10.flac
     6:11.36       65529116 B   ---   --   ---xx   flac  0.5087  therevivalists2016-12-18d01t11.flac
     8:36.72       91191788 B   ---   --   ---xx   flac  0.4987  therevivalists2016-12-18d01t12.flac
    64:10.50      679258128 B                            0.4879  (12 files)












More information about the bittorrent mailing list