[bittorrent] Jonatan Brill Solo Acoustic Red Light Cafe Atlanta, Georgia 12/20/2016 (Schoeps CCM4V'S FOB)

Automated Mailer noreply-bt.e at etree.org
Wed Dec 21 17:09:15 UTC 2016


Band:           Other
Torrent Name:   Jonatan Brill Solo Acoustic Red Light Cafe Atlanta, Georgia 12/20/2016 (Schoeps CCM4V'S FOB)
Uploaded by:    zmanatl
DB Link:        
Details:        http://bt.etree.org/details.php?id=590446

Contact the seeder at http://db.etree.org/zmanatl

If the link to this show does not work, it was probably removed for
being non-trade-friendly.

Description / text file:
-------------------------
Jonathan Brill Solo Acoustic
Red Light Cafe
Atlanta, Georgia
12/20/2016 

Source: Schoeps CCM4V's>Lunatec V2>Benchmark AD2K>
Sound Devices 722 (24/44)
FOB/DFC/KFC/ZFC/AARP 35' From Stage, 7' High
DSP: Sound Devices 722>Sound Forge 10.0>CD Wave>flac(16)
ID3 Tagged In Foobar 2000
Recorded By: Z-Man
Seeded By: Z-Man

Disc I 

01 Greeting
02 All The Tea In China
03 It's Me Calling
04 It Takes A Lot To Laugh, It Takes A Train To Cry
05 The Things That You Need
06 Wanderful
07 If I Had The World To Give
08 If I Had To Chose
09 Two Doors Down
10 Put Your Hand In My Hand

jonathan2016-12-20d01t01.flac:46f5c465cef0e2f6b32cd9bb2972c43e
jonathan2016-12-20d01t02.flac:801f61e5ef2d2123ba5b0b9b639c6cb9
jonathan2016-12-20d01t03.flac:a91e786a2342368c5460328210669b09
jonathan2016-12-20d01t04.flac:cd5da3b2acbc65e073eaeff67a864aad
jonathan2016-12-20d01t05.flac:29090b9cc4591f556e31119497618a00
jonathan2016-12-20d01t06.flac:780db88e408a9ed6a091e7a526926df0
jonathan2016-12-20d01t07.flac:9b0599692bb1f89abc3d0c64d8f74033
jonathan2016-12-20d01t08.flac:f439605d29f90950b0aa03f3e572eb66
jonathan2016-12-20d01t09.flac:a915b2f6f7543ce62feda1bb9ae79b9d
jonathan2016-12-20d01t10.flac:33485845cd6caecc336b109ba65aabf7

 length     expanded size    cdr  WAVE problems  fmt   ratio  filename
     0:49.20        8690684 B   ---   --   ---xx   flac  0.2980  jonathan2016-12-20d01t01.flac
     5:25.15       57365324 B   ---   --   ---xx   flac  0.3770  jonathan2016-12-20d01t02.flac
     3:26.72       36507788 B   ---   --   ---xx   flac  0.3665  jonathan2016-12-20d01t03.flac
     4:39.50       49333244 B   ---   --   ---xx   flac  0.3527  jonathan2016-12-20d01t04.flac
     5:36.64       59420972 B   ---   --   ---xx   flac  0.3651  jonathan2016-12-20d01t05.flac
     5:16.63       55890620 B   ---   --   ---xx   flac  0.3834  jonathan2016-12-20d01t06.flac
     3:48.18       40261580 B   ---   --   ---xx   flac  0.3474  jonathan2016-12-20d01t07.flac
     4:08.39       43838972 B   ---   --   ---xx   flac  0.3564  jonathan2016-12-20d01t08.flac
     4:16.57       45292508 B   ---   --   ---xx   flac  0.3703  jonathan2016-12-20d01t09.flac
     3:14.61       34365116 B   ---   --   ---xx   flac  0.3920  jonathan2016-12-20d01t10.flac
    40:43.09      430966808 B                            0.3665  (10 files)




















More information about the bittorrent mailing list