[bittorrent] Songs For Kids Foundation Radio 105.7 404 Christmas Atlantic Station Atlanta, Georgia 12/18/2016 (Schoeps CCM4V'S FOB)

Automated Mailer noreply-bt.e at etree.org
Wed Dec 21 16:23:21 UTC 2016


Band:           Other
Torrent Name:   Songs For Kids Foundation Radio 105.7 404 Christmas Atlantic Station Atlanta, Georgia 12/18/2016 (Schoeps CCM4V'S FOB)
Uploaded by:    zmanatl
DB Link:        
Details:        http://bt.etree.org/details.php?id=590445

Contact the seeder at http://db.etree.org/zmanatl

If the link to this show does not work, it was probably removed for
being non-trade-friendly.

Description / text file:
-------------------------
Songs For Kids Foundation
Radio 105.7 404 Christmas
Atlantic Station
Atlanta, Georgia
12/18/2016 

Source: Schoeps CCM4V's>Lunatec V2>Benchmark AD2K>
Sound Devices 722 (24/44)
FOB/DFC/KFC/ZFC/AARP 68' From Stage, 5' High
DSP: Sound Devices 722>Sound Forge 10.0>CD Wave>flac(16)
ID3 Tagged In Foobar 2000
Recorded By: Z-Man
Seeded By: Z-Man

Disc I 

01 Soundcheck: Lose Myself
02 Announcements And Introductin By Knox From 105.7 
03 Banter On Songs For Kids
04 Hold On
05 Lose Myself
06 Mia Young Banter
07 ?
08 Banter
09 *Hurricane Winslow
10 ?
11 Purple Rain
12 Outro

* With Davd Shaw Of The Revivalists On Acoustic Guitar And Vocals

songsforkids2016-12-18d01t01.flac:cf55faf06dd714f05e7d25d2292c6707
songsforkids2016-12-18d01t02.flac:872f9ec62949a732bc60837bbce0241b
songsforkids2016-12-18d01t03.flac:3a610acd8d729e093dacd88482a3d8a6
songsforkids2016-12-18d01t04.flac:59e4ca42c609c9da2cca9302d0af01c0
songsforkids2016-12-18d01t05.flac:3c7bf5432576946b42bd74eb10b8bea1
songsforkids2016-12-18d01t06.flac:0f094800fb9766a2e1f4a239dfbcbd68
songsforkids2016-12-18d01t07.flac:7ad2e40b54b98eaaad27a64b093aa132
songsforkids2016-12-18d01t08.flac:19c34cbdc1789ff8f875eb0895fb5125
songsforkids2016-12-18d01t09.flac:bc2a681078a8f2f918acdd171ee51501
songsforkids2016-12-18d01t10.flac:1875134aabc5f75ccb297ca7b19fab17
songsforkids2016-12-18d01t11.flac:94a143211e400be662786403f0f80bee
songsforkids2016-12-18d01t12.flac:3c7819bb7955203d01fbad4db430b916

length     expanded size    cdr  WAVE problems  fmt   ratio  filename
     3:22.60       35773964 B   ---   --   ---xx   flac  0.4662  songsforkids2016-12-18d01t01.flac
     0:45.11        7963916 B   ---   --   ---xx   flac  0.3669  songsforkids2016-12-18d01t02.flac
     0:44.44        7865132 B   ---   --   ---xx   flac  0.3631  songsforkids2016-12-18d01t03.flac
     4:40.17       49432028 B   ---   --   ---xx   flac  0.4835  songsforkids2016-12-18d01t04.flac
     3:22.35       35715164 B   ---   --   ---xx   flac  0.5213  songsforkids2016-12-18d01t05.flac
     1:55.52       20408348 B   ---   --   ---xx   flac  0.3138  songsforkids2016-12-18d01t06.flac
     5:13.60       55354364 B   ---   --   ---xx   flac  0.4602  songsforkids2016-12-18d01t07.flac
     1:29.42       15798428 B   ---   --   ---xx   flac  0.3382  songsforkids2016-12-18d01t08.flac
     6:26.18       68132780 B   ---   --   ---xx   flac  0.4941  songsforkids2016-12-18d01t09.flac
     5:09.58       54644060 B   ---   --   ---xx   flac  0.4805  songsforkids2016-12-18d01t10.flac
     3:28.41       36787676 B   ---   --   ---xx   flac  0.4804  songsforkids2016-12-18d01t11.flac
     1:19.45       14041484 B   ---   --   ---xx   flac  0.3790  songsforkids2016-12-18d01t12.flac
    37:58.33      401917344 B                            0.4606  (12 files)





























More information about the bittorrent mailing list