[bittorrent] John Kadlecik Solo Red Light Cafe Atlanta, Georgia 12/20/2016 (Schoeps CCM4V'S FOB)

Automated Mailer noreply-bt.e at etree.org
Wed Dec 21 15:04:21 UTC 2016


Band:           Other
Torrent Name:   John Kadlecik Solo Red Light Cafe Atlanta, Georgia 12/20/2016 (Schoeps CCM4V'S FOB)
Uploaded by:    zmanatl
DB Link:        
Details:        http://bt.etree.org/details.php?id=590444

Contact the seeder at http://db.etree.org/zmanatl

If the link to this show does not work, it was probably removed for
being non-trade-friendly.

Description / text file:
-------------------------
John Kadlecik
Red Light Cafe
Atlanta, Georgia
12/20/2016 

Source: Schoeps CCM4V's>Lunatec V2>Benchmark AD2K>
Sound Devices 722 (24/44)
FOB/DFC/KFC/ZFC/AARP 35' From Stage, 7' High
DSP: Sound Devices 722>Sound Forge 10.0>CD Wave>flac(16)
ID3 Tagged In Foobar 2000
Recorded By: Z-Man
Seeded By: Z-Man

Disc I 

01 Greeting/Jam >
02 When I Paint My Masterpiece 
03 You're Alright
04 ?
05 Lucky Ol' Son
06 Ruben And Cherise 
07 Yellow Moon     
08 Run For The Roses 
09 Across The Universe
10 Watching The Wheels
11 ? 
12 Time Stands Still
13 Wasted On The Way 
14 The Wall Song

Disc II 

01 Unbroken Chain 
02 Land Of The Navajo 
03 Tin Roof Shack
04 Brown-Eyed Women
05 Hard Highway
06 ?
07 American Spring     
08 Throwin' Stones 
09 The Days Between 
10 Banter
11 Touch Of Grey
Encore:
12 Thanks
13 Ripple 

john2016-12-20d01t01.flac:3a52503a96d971aeafc84d615f30f142
john2016-12-20d01t02.flac:f42957bcf1e1250aa61992b6365f5264
john2016-12-20d01t03.flac:92bb1ba4606d3a5d493f6800f777e579
john2016-12-20d01t04.flac:ed3da90409b3a6df186404f110bb7a65
john2016-12-20d01t05.flac:6185b3dd1e3cb1d169636ad714e9f290
john2016-12-20d01t06.flac:1a3e889e0699d44588fe11b98def8344
john2016-12-20d01t07.flac:bdc7213c5ca29490b532d0b2c006f4dd
john2016-12-20d01t08.flac:76750e153e7c4503c962c11f88fcb1e3
john2016-12-20d01t09.flac:e3ce337728117ef5b7d28c6fa4ce283b
john2016-12-20d01t10.flac:b742190e0505616d9e3a85ac91173e7a
john2016-12-20d01t11.flac:44c70eb8ff4084ca959d3167b65d2e4c
john2016-12-20d01t12.flac:c7147df2a045addfc89fccb82e46fd6e
john2016-12-20d01t13.flac:ee109899268ce0f11baffc82d93767f2
john2016-12-20d01t14.flac:192992d9004569c7e26fa79d0da4c39a
john2016-12-20d02t01.flac:b0d21a9271023aee186361d51ec9a71f
john2016-12-20d02t02.flac:b3831bf9fa4e12ff3c698fff75c1ebc4
john2016-12-20d02t03.flac:c63077a64045be08b22c8ab8f80a09a0
john2016-12-20d02t04.flac:40e6b74b6f2ea3147ed8bfdcaf9f0122
john2016-12-20d02t05.flac:3f4c99d4ae0bd49b1de25c7f2d921f2d
john2016-12-20d02t06.flac:6b27086ce29cf5a2e39a9d2c83c7a306
john2016-12-20d02t07.flac:eadb155112ea50ebdcb310990f04bed3
john2016-12-20d02t08.flac:319cee5e4d71caa0fac917e23a597468
john2016-12-20d02t09.flac:ac1f0b8576f00d4511951af40ff34c8d
john2016-12-20d02t10.flac:7ba65770f2985c372f87ee6cbd9298b3
john2016-12-20d02t11.flac:3ec9f2ccdb00161cd7e2e28d7505510d
john2016-12-20d02t12.flac:d359c479fb31eeaedfc3fbf59702b5f2
john2016-12-20d02t13.flac:9c135ecfe02471c15bb555e431c4881e

 length     expanded size    cdr  WAVE problems  fmt   ratio  filename
     1:48.70       19215884 B   ---   --   ---xx   flac  0.2892  john2016-12-20d01t01.flac
     5:40.02       59980748 B   ---   --   ---xx   flac  0.3539  john2016-12-20d01t02.flac
     3:15.24       34454492 B   ---   --   ---xx   flac  0.3355  john2016-12-20d01t03.flac
     3:36.22       38154188 B   ---   --   ---xx   flac  0.3606  john2016-12-20d01t04.flac
     5:28.59       57998012 B   ---   --   ---xx   flac  0.3057  john2016-12-20d01t05.flac
     5:54.71       62612636 B   ---   --   ---xx   flac  0.3489  john2016-12-20d01t06.flac
     4:33.28       48223100 B   ---   --   ---xx   flac  0.3514  john2016-12-20d01t07.flac
     4:32.29       48049052 B   ---   --   ---xx   flac  0.3473  john2016-12-20d01t08.flac
     3:52.15       40960124 B   ---   --   ---xx   flac  0.3949  john2016-12-20d01t09.flac
     3:50.28       40637900 B   ---   --   ---xx   flac  0.3025  john2016-12-20d01t10.flac
     4:20.52       45986348 B   ---   --   ---xx   flac  0.3095  john2016-12-20d01t11.flac
     5:34.73       59089340 B   ---   --   ---xx   flac  0.3533  john2016-12-20d01t12.flac
     3:23.15       35844524 B   ---   --   ---xx   flac  0.3399  john2016-12-20d01t13.flac
     4:21.45       46146284 B   ---   --   ---xx   flac  0.3714  john2016-12-20d01t14.flac
     7:00.57       74222108 B   ---   --   ---xx   flac  0.3173  john2016-12-20d02t01.flac
     4:49.63       51127820 B   ---   --   ---xx   flac  0.3633  john2016-12-20d02t02.flac
     3:06.17       32850428 B   ---   --   ---xx   flac  0.3703  john2016-12-20d02t03.flac
     4:04.47       43152188 B   ---   --   ---xx   flac  0.3692  john2016-12-20d02t04.flac
     2:59.11       31601516 B   ---   --   ---xx   flac  0.3788  john2016-12-20d02t05.flac
     4:35.60       48651164 B   ---   --   ---xx   flac  0.3543  john2016-12-20d02t06.flac
     4:48.55       50932604 B   ---   --   ---xx   flac  0.3582  john2016-12-20d02t07.flac
     6:54.27       73093148 B   ---   --   ---xx   flac  0.3710  john2016-12-20d02t08.flac
     7:57.08       84161660 B   ---   --   ---xx   flac  0.3079  john2016-12-20d02t09.flac
     2:01.71       21511436 B   ---   --   ---xx   flac  0.3246  john2016-12-20d02t10.flac
     5:32.35       58647164 B   ---   --   ---xx   flac  0.3915  john2016-12-20d02t11.flac
     0:31.29        5536652 B   ---   --   ---xx   flac  0.3494  john2016-12-20d02t12.flac
     5:10.47       54794588 B   ---   --   ---xx   flac  0.3449  john2016-12-20d02t13.flac
   119:46.10     1267635108 B                            0.3469  (27 files)

















More information about the bittorrent mailing list